<?xml version="1.0" standalone="no"?>
<!DOCTYPE svg PUBLIC "-//W3C//DTD SVG 1.1//EN" "http://www.w3.org/Graphics/SVG/1.1/DTD/svg11.dtd" >
<svg xmlns="http://www.w3.org/2000/svg">
<metadata>
Created by FontPrep 20130207 at Sun Jun  7 23:01:01 2015
 By Andy White
Copyright (c) 2008 by Hannes von Dhren. All rights reserved.
</metadata>
<defs>
<font id="ff8e9be40b457f0ffd5d01dd91a43f83" horiz-adv-x='1024' >
  <font-face 
    font-family="HVDComicSerifPro"
    font-weight="400"
    font-stretch="normal"
    units-per-em="2048"
    panose-1="2 0 5 6 0 0 0 2 0 4"
    ascent="1516"
    descent="-532"
    x-height="1026"
    cap-height="1446"
    bbox="-260 -942 2406 2290"
    underline-thickness="102"
    underline-position="-102"
    unicode-range="U+0020-FB04"
  />
<missing-glyph horiz-adv-x="884" 
 />
    <glyph glyph-name="f_f" unicode="ff" horiz-adv-x="1720" 
d="M127 999q80 0 80 2q0 194 44 287q24 51 61 107q38 55 106 86t154 31t167 -21q80 -20 117 -41l39 -20l-127 -293q-60 18 -106 18t-66 -39t-23 -78v-39l416 -6q1 68 25 180q24 113 50 158t60 89q74 93 217 91q99 -1 203 -33t160 -65l53 -35l-168 -270q-80 47 -157 47
q-29 0 -44 -39t-16 -76l-2 -39l244 -14q22 -80 16 -248l-4 -53l-252 4l6 -354l179 -12q10 -219 -9 -312l-639 -12q-14 8 -25 154t-1 149q5 2 71 15t66 18l-23 360l-421 -4l6 -356l166 -12l10 -324q-648 -8 -662 0t-30 154t-10 148q6 3 88 16q81 13 81 18l-24 360l-156 -2
l-4 301q4 4 84 4z" />
    <glyph glyph-name="fi" unicode="fi" horiz-adv-x="1574" 
d="M127 999q80 0 80 2q0 203 95 357q95 153 341 153q115 0 227 -18t168 -39l56 -18q-29 -207 -101 -308q-158 53 -286 54q-63 0 -97 -45t-37 -90v-46q27 4 173 1t350 -17t266 -29v-639l168 -26l4 -287q-6 -6 -167 -6h-230l-217 2h-35q-15 135 -15 303l136 8l2 375h-154
q-115 0 -276 4l6 -354l157 -12l11 -324q-640 -8 -654 0t-30 154t-10 148q6 3 88 16q81 13 81 18l-24 360l-156 -2l-4 301q4 4 84 4z" />
    <glyph glyph-name="fl" unicode="fl" horiz-adv-x="1671" 
d="M127 999q80 0 80 2q0 220 111 357q124 153 454 153q168 1 334 -23t246 -46l82 -25v-1120l168 -14l4 -279q-6 -6 -178 -6h-245l-231 2h-37q-34 136 -34 283l176 28l-6 791q-90 53 -267 53q-124 0 -164 -49t-47 -90v-15l244 -14q11 -43 15 -119t-1 -129l-2 -53l-251 4
l6 -354l178 -12l10 -324q-660 -8 -674 0t-30 154t-10 148q6 3 88 16q81 13 81 18l-24 360l-156 -2l-4 301q4 4 84 4z" />
    <glyph glyph-name="f_f_i" unicode="ffi" horiz-adv-x="2394" 
d="M127 999q80 0 80 2q0 194 44 287q24 51 61 107q38 55 106 86t154 31t167 -21q80 -20 117 -41l39 -20l-127 -293q-60 18 -106 18t-66 -39t-23 -78v-39q209 4 426 2q0 202 95 356t342 154q116 0 228 -18t167 -39l55 -18q-29 -207 -100 -308q-158 53 -287 54q-63 0 -97 -45
t-34 -90l-2 -46q93 13 411 -8q318 -20 377 -37v-639l168 -26l5 -287q-5 -6 -167 -6h-231l-217 2h-35q-14 126 -14 303l135 8l2 375h-252q-113 0 -178 4l10 -354l154 -17q10 -219 -8 -311l-615 -8q-14 8 -25 154t-1 149q5 2 71 15t66 18l-23 360l-421 -4l6 -356l166 -12
l10 -324q-648 -8 -662 0t-30 154t-10 148q6 3 88 16q81 13 81 18l-24 360l-156 -2l-4 301q4 4 84 4z" />
    <glyph glyph-name="f_f_l" unicode="ffl" horiz-adv-x="2471" 
d="M127 999q80 0 80 2q0 194 44 287q24 51 61 107q38 55 106 86t154 31t167 -21q80 -20 117 -41l39 -20l-127 -293q-60 18 -106 18t-66 -39t-23 -78v-39q213 4 435 2q0 220 111 357q124 153 454 153q168 1 334 -23t247 -46l80 -25v-1120l168 -14l4 -279q-6 -6 -180 -6h-249
l-233 2h-38q-3 26 -5 130q-3 104 1 153l156 28l-7 791q-90 53 -240 53q-151 0 -193 -52t-42 -87l-2 -15l244 -14q22 -80 16 -248l-4 -53l-252 4l6 -354l179 -12q6 -219 -13 -312l-639 -12q-14 8 -25 154t-1 149q5 2 71 15t66 18l-23 360l-421 -4l6 -356l166 -12l10 -324
q-648 -8 -662 0t-30 154t-10 148q6 3 88 16q81 13 81 18l-24 360l-156 -2l-4 301q4 4 84 4z" />
    <glyph glyph-name=".notdef" horiz-adv-x="884" 
 />
    <glyph glyph-name=".null" horiz-adv-x="0" 
 />
    <glyph glyph-name="nonmarkingreturn" horiz-adv-x="681" 
 />
    <glyph glyph-name="space" unicode=" " horiz-adv-x="716" 
 />
    <glyph glyph-name="exclam" unicode="!" horiz-adv-x="630" 
d="M336 -16q-100 0 -158 55q-57 56 -60 153t56 155q59 59 143 59t149 -62q64 -62 64 -147t-47 -149t-147 -64zM274 1448q194 0 291 -21q0 -215 -38 -415q-37 -200 -75 -295q-38 -96 -53 -99q-25 -4 -95 -2t-77 10q-8 9 -49 143t-82 332t-41 331q25 16 219 16z" />
    <glyph glyph-name="quotedbl" unicode="&#x22;" horiz-adv-x="909" 
d="M278 1493q154 0 154 -6t-52 -244t-54 -237q-181 0 -187 6t-15 124t-18 232l-6 117q24 8 178 8zM727 1024q-211 -8 -215 -1t-3 246t5 240q-13 6 160 -2q172 -8 170 -10z" />
    <glyph glyph-name="numbersign" unicode="#" horiz-adv-x="1253" 
d="M487 565q6 -8 123 -6t121 10l41 217h-240zM160 963q14 0 111 7t102 11l92 451q4 4 63 9q58 5 108 5t58 -4l-110 -457q0 -4 124 0t134 6q6 2 48 216t42 227q0 8 209 8q4 0 -50 -225t-47 -222q10 4 90 3t80 -7q0 -16 -8 -114q-8 -99 -12 -99t-100 4l-97 2l-53 -221
q186 -6 186 -18q0 -186 -8 -187q-193 0 -200 -12l-95 -360q-195 2 -199 4t68 356q0 9 -102 3q-102 -5 -127 -5l-29 -2l-20 -86q-18 -86 -37 -174l-21 -86l-190 12l72 348l-166 -8q-6 12 1 92t13 82t52 9t89 14l43 8q0 4 28 116t30 111l-176 -4q-16 2 -22 7t7 93q12 88 19 87
z" />
    <glyph glyph-name="dollar" unicode="$" horiz-adv-x="1161" 
d="M564 322q50 0 83 24t33 64q0 75 -56 117t-198 110q-86 45 -136 79q-150 102 -195 230q-28 80 -27 184q0 150 110 254q111 104 297 113q-6 172 -4 181q2 10 92 20t91 4t3 -80t5 -145q82 -25 116 -60l15 99q172 8 272 -35q5 -3 -9 -222q-15 -219 -16 -243q0 -29 -239 -26
q-80 1 -80 5q-6 82 -48 123t-88 41q-46 1 -83 -23t-37 -67t37 -72t130 -75q92 -46 156 -82q241 -140 293 -295q25 -72 25 -162q0 -162 -116 -278t-267 -125v-201q1 -2 -19 -2h-50l-109 2l-21 2q-8 0 -18 221q-119 35 -164 90q-2 -18 -4 -51t-4 -53l-2 -23l-269 19
q-4 45 -4 520q213 47 322 31q27 -97 80 -155t103 -58z" />
    <glyph glyph-name="percent" unicode="%" horiz-adv-x="1705" 
d="M1157 252q0 -43 33 -66t76 -22q88 0 88 93t-98 93t-99 -98zM883 264q0 168 103 246t268 78q166 0 264 -85t98 -231t-91 -243t-265 -97t-276 82q-101 82 -101 250zM307 1073q0 -69 82 -69t82 69q0 78 -82 78t-82 -78zM393 782q-158 0 -250 73t-92 221t94 217q95 69 243 69
t238 -76t89 -204q0 -128 -82 -214t-240 -86zM1192 1475q14 0 105 -78t87 -94q-6 -29 -494 -713t-509 -670q-53 38 -129 116q-76 79 -74 81l252 342q748 1016 762 1016z" />
    <glyph glyph-name="ampersand" unicode="&#x26;" horiz-adv-x="1757" 
d="M428 414q0 -45 32 -72t66 -27q34 1 73 17q38 16 56 33l21 18l-150 180q0 -2 -10 -9q-10 -8 -24 -22t-39 -44q-25 -29 -25 -74zM600 1200q-31 0 -50 -24q-42 -52 2 -114q21 -32 44 -46q2 -4 21 8t39 38q19 26 20 54q0 84 -76 84zM1286 -74q-208 0 -373 180
q-27 -28 -69 -58t-144 -66t-217 -37q-193 1 -311 121t-117 280q0 82 35 179t142 223q40 45 69 67l29 23q-131 156 -131 280q0 162 100 266q101 104 281 104t294 -99q114 -100 113 -273q0 -130 -68 -210t-114 -107l-21 -13l156 -186q141 150 170 195q-18 9 -46 33t-44 44
l-19 21q176 248 185 258q4 5 259 -147t256 -159q2 -13 -120 -227l-39 -71q-123 86 -125 86q-86 -121 -192 -242l-41 -47q33 -61 109 -61t141 147q7 0 184 -65l55 -23q-2 0 -8 -43q-14 -103 -85 -226q-36 -59 -113 -103t-181 -44z" />
    <glyph glyph-name="quotesingle" unicode="'" horiz-adv-x="579" 
d="M348 989q-11 0 -160 -6h-47l-2 37q-4 37 -8 90t-9 118t-8 119t-4 92t1 40t174 8t174 -2q0 -16 -50 -256t-61 -240z" />
    <glyph glyph-name="parenleft" unicode="(" horiz-adv-x="819" 
d="M687 -131q-5 0 -67 14t-159 65q-97 52 -169 119t-126 151q-55 84 -91 215q-36 130 -36 284q0 153 37 281t95 210q121 171 263 237q142 65 208 77q67 12 67 10q12 -16 23 -114t11 -122q0 -2 -42 -11q-108 -23 -220 -126q-59 -55 -101 -172t-42 -241t15 -204
q48 -255 239 -368q82 -51 166 -63l14 -5q-2 -2 -21 -61t-39 -117t-25 -59z" />
    <glyph glyph-name="parenright" unicode=")" horiz-adv-x="819" 
d="M473 718q0 429 -321 543q-35 11 -58 16q-22 5 -22 9t19 118t15 116q53 0 168 -41q330 -117 447 -426q55 -150 55 -320q0 -436 -254 -665q-117 -107 -264 -160q-93 -35 -131 -35q-6 0 -44 118t-40 120q106 15 190 69t128 120q76 109 94 212q18 102 18 206z" />
    <glyph glyph-name="asterisk" unicode="*" horiz-adv-x="851" 
d="M512 877q0 -13 -86 -31t-94 -14t-8 196q0 2 -84 -44t-87 -46t-52 78q-48 78 -48 85t76 68t76 65t-75 65q-75 59 -75 67q-1 8 53 68t61 62q7 3 80 -40t77 -43t34 111l11 37q155 1 157 -5t6 -55t6 -95q3 -46 6 -46t46 17q125 50 133 42t51 -100q44 -92 42 -92t-97 -29
q-94 -29 -92 -32q2 -2 36 -28t68 -53l33 -24q0 -4 -37 -77t-43 -77q-14 -8 -170 97q-2 0 -2 -6l-2 -37v-84z" />
    <glyph glyph-name="plus" unicode="+" horiz-adv-x="1273" 
d="M748 870h450q2 -182 -6 -190t-212 -28t-209 -22t-11 -236t-10 -238t-106 -8t-105 8q-4 12 -20 248t-19 239q-2 2 -204 -5t-207 -2q-11 11 -19 111q-8 99 -7 99l459 6v475l226 -22v-435z" />
    <glyph glyph-name="comma" unicode="," horiz-adv-x="630" 
d="M305 -16q-100 0 -142 52t-45 153q-3 100 56 158q59 59 141 59q83 0 143 -60t72 -143q48 -291 -20 -464t-248 -208q-17 39 -43 133l-8 33q115 10 156 117q33 88 -9 143q-20 27 -53 27z" />
    <glyph glyph-name="hyphen" unicode="-" horiz-adv-x="868" 
d="M745 389l-622 -43q-11 0 -25 146t-6 150q8 5 340 36q332 32 335 20t-7 -160t-15 -149z" />
    <glyph glyph-name="period" unicode="." horiz-adv-x="630" 
d="M336 -16q-100 0 -158 55q-57 56 -60 153t56 155q59 59 143 59t149 -62q64 -62 64 -147t-47 -149t-147 -64z" />
    <glyph glyph-name="slash" unicode="/" horiz-adv-x="1024" 
d="M78 58q0 6 304 742t308 740q233 -94 234 -104q0 -18 -303 -770t-325 -746t-120 70t-98 68z" />
    <glyph glyph-name="zero" unicode="0" horiz-adv-x="1220" 
d="M602 336q152 0 152 326q0 385 -146 385q-76 1 -114 -103t-37 -260q0 -348 145 -348zM621 -53q-205 0 -328 90q-227 161 -225 675q1 573 338 704q92 36 204 36t207 -38q350 -141 350 -728q1 -739 -546 -739z" />
    <glyph glyph-name="one" unicode="1" horiz-adv-x="1024" 
d="M166 0q-8 0 -8 242v82l213 6l20 639q-156 -72 -172 -76q-18 -5 -121 165q-35 58 -37 64q1 9 223 191t222 180l278 -96l-12 -1061q2 -4 85 -4t95 -13q12 -18 8 -162q-4 -145 -8 -151t-786 -6z" />
    <glyph glyph-name="two" unicode="2" horiz-adv-x="1087" 
d="M569 1000q1 20 -25 44t-68 23q-42 0 -90 -25t-67 -49l-20 -24q-14 -12 -68 52q-53 65 -100 139t-47 88q0 34 70 89q144 121 365 121q219 0 359 -98t140 -297q0 -123 -71 -250t-326 -457l397 6q10 -12 13 -102t-2 -173t-13 -83q-16 4 -460 -3t-453 -1t-27 129t-13 162
q61 76 101 125t189 230q149 182 199 266q18 30 17 88z" />
    <glyph glyph-name="three" unicode="3" horiz-adv-x="1087" 
d="M569 -25q-106 0 -198 33q-91 33 -147 79q-111 92 -150 171l-15 33q215 246 232 246q4 0 36 -44q32 -45 90 -89q59 -44 113 -44t74 28t21 54q-1 68 -57 101t-144 32q-8 8 -8 80t4 140l4 65q127 0 165 27t39 85t-28 85t-75 27t-96 -34q-50 -32 -77 -63l-24 -33q-8 8 -22 20
q-105 90 -142 142t-34 70t32 60t79 91t135 85t179 36q213 0 347 -116t134 -326q0 -102 -51 -169t-100 -97q169 -112 170 -316q1 -203 -143 -331t-343 -128z" />
    <glyph glyph-name="four" unicode="4" horiz-adv-x="1140" 
d="M1055 946v-315q0 -6 -176 -6q-4 0 -5 -336q0 -2 68 -4t80 -11q12 -8 12 -113l-2 -107v-38l-2 -16q0 -4 -694 -4q-5 13 0 221l4 76l182 6l10 322q-457 27 -458 26l2 203q2 204 6 406t4 204l315 10l-2 -501h138l16 334q332 -8 336 -11l6 -342q160 2 160 -4z" />
    <glyph glyph-name="five" unicode="5" horiz-adv-x="1024" 
d="M250 537q2 0 35 -44q33 -45 91 -89t112 -44t75 26q20 26 21 52q0 213 -418 213l-53 62l53 721q17 0 112 4q572 24 635 6q-35 -315 -45 -320l-354 -16l-14 -158q10 -2 28 -4q141 -16 284 -112q121 -83 174 -220q30 -78 30 -172q0 -211 -144 -339t-344 -128q-106 0 -198 33
t-148 79q-111 92 -149 171l-15 33q215 246 232 246z" />
    <glyph glyph-name="six" unicode="6" horiz-adv-x="1087" 
d="M600 344q33 0 62 27t28 73q0 88 -74 138t-147 49q-19 -47 -23 -112t38 -120t116 -55zM59 578q0 148 52 291q51 143 125 247q155 217 272 316l51 43q-4 4 75 -35t161 -91t94 -85q0 -2 -27 -20q-56 -39 -154 -126q-98 -86 -130 -172q171 -37 307 -151q69 -59 111 -151
t42 -204q0 -223 -130 -343t-326 -120q-195 0 -352 142q-77 71 -124 191t-47 268z" />
    <glyph glyph-name="seven" unicode="7" horiz-adv-x="1216" 
d="M476 1436q375 0 517 -11h27l147 -198q-549 -1264 -553 -1264t-89 30q-260 92 -328 148l465 920l-234 2l10 -182l-309 -11q-4 4 -27 132q-61 340 -26 409q25 25 400 25z" />
    <glyph glyph-name="eight" unicode="8" horiz-adv-x="1220" 
d="M463 444q0 -131 127 -131q135 0 135 121q0 62 -32 102q-33 40 -99 40t-98 -38q-32 -37 -33 -94zM469 1057q0 -99 112 -99t111 93q0 106 -108 106q-57 0 -86 -28t-29 -72zM68 406q0 238 157 348q-119 96 -119 299q0 129 77 223q144 176 395 176q106 0 214 -42t188 -138
t79 -223q0 -195 -121 -293q172 -113 172 -357q0 -199 -152 -313t-353 -115q-201 0 -362 102q-79 50 -127 136t-48 197z" />
    <glyph glyph-name="nine" unicode="9" horiz-adv-x="1089" 
d="M500 1104q-33 0 -62 -27t-28 -73q0 -88 70 -133q71 -44 147 -44q56 133 -13 224q-41 53 -114 53zM55 1004q0 223 134 345q134 121 335 121t350 -112q80 -59 128 -172t48 -260t-48 -299t-118 -268q-142 -237 -257 -355l-47 -51q-54 12 -146 62q-91 50 -129 77
q-37 27 -63 62l55 55q55 55 124 140t93 153q-170 36 -305 150q-70 58 -112 150t-42 202z" />
    <glyph glyph-name="colon" unicode=":" horiz-adv-x="630" 
d="M336 -16q-100 0 -158 55q-57 56 -60 153t56 155q59 59 143 59t149 -62q64 -62 64 -147t-47 -149t-147 -64zM336 721q-100 0 -158 55q-57 54 -60 152t56 156t143 58t149 -60q64 -62 64 -148t-47 -150t-147 -63z" />
    <glyph glyph-name="semicolon" unicode=";" horiz-adv-x="630" 
d="M305 -16q-100 0 -142 52t-45 153q-3 100 56 158q59 59 141 59q83 0 143 -60t72 -143q48 -291 -20 -464t-248 -208q-17 39 -43 133l-8 33q115 10 156 117q33 88 -9 143q-20 27 -53 27zM336 721q-100 0 -158 55q-57 54 -60 152t56 156t143 58t149 -60q64 -62 64 -148
t-47 -150t-147 -63z" />
    <glyph glyph-name="less" unicode="&#x3c;" horiz-adv-x="1024" 
d="M96 594q-23 0 -22 192q0 10 393 163t402 145t41 -92t28 -92q-4 -7 -258 -119l-252 -113q-6 -6 274 -133q279 -128 285 -127t-31 -98q-36 -99 -42 -104t-408 186q-402 192 -410 192z" />
    <glyph glyph-name="equal" unicode="=" horiz-adv-x="1024" 
d="M924 580q0 -10 -10 -124t-11 -114q-63 0 -417 7t-361 15t-19 92t0 97q4 4 411 18t407 9zM513 770q-415 10 -427 12t-11 98t3 95q850 4 872 -35q16 -37 -1 -106q-17 -70 -19 -72t-417 8z" />
    <glyph glyph-name="greater" unicode="&#x3e;" horiz-adv-x="1024" 
d="M127 356q6 0 281 150q276 150 274 151l-293 123q-295 123 -299 130t28 91q32 85 41 93t412 -145t404 -163q0 -2 2 -24q15 -168 -2 -168q-10 0 -203 -112q-571 -332 -577 -326t-40 103t-28 97z" />
    <glyph glyph-name="question" unicode="?" horiz-adv-x="1087" 
d="M762 197q0 -85 -47 -149t-147 -64t-158 56t-61 152q-3 97 57 155q60 59 143 59q85 0 149 -62t64 -147zM416 640q0 77 4 148l4 72q127 0 165 27t39 85t-28 86t-75 28t-95 -34q-49 -32 -74 -65l-22 -33q-8 8 -22 20q-109 94 -144 144q-34 50 -32 68t31 62q82 124 210 183
q84 38 178 37q211 0 346 -126t135 -338q0 -138 -50 -236t-140 -144q-174 -89 -422 -69q-8 8 -8 85z" />
    <glyph glyph-name="at" unicode="@" horiz-adv-x="2058" 
d="M842 438q0 -84 38 -131t91 -47t87 45t34 127t-34 134t-85 52q-131 0 -131 -180zM35 518q0 299 143 539q78 129 193 224t294 153t400 59q420 0 678 -207t258 -598q0 -766 -827 -723l-11 139q-8 -12 -24 -29q-17 -17 -77 -47t-126 -30q-131 0 -254 106q-59 54 -97 148
t-38 215q0 195 123 307t250 111q127 0 200 -33l23 -12l26 94q172 8 344 4q-1 -4 3 -64t6 -116l2 -58q-4 0 -58 -14t-57 -16l14 -400q78 -5 172 78q49 43 83 129t34 172t-18 154q-18 67 -66 143q-102 163 -305 235q-117 40 -285 40t-312 -66q-144 -67 -222 -175
q-152 -211 -152 -460q0 -208 147 -404q49 -65 109 -122q60 -56 62 -57q0 -30 -181 -166l-59 -43q-51 38 -128 130q-77 91 -129 177t-95 216t-43 267z" />
    <glyph glyph-name="A" unicode="A" horiz-adv-x="1435" 
d="M582 698l182 11l-102 266zM1376 293v-301l-573 -15q-15 9 -27 149t-2 144l105 6l-56 166l-276 4l-27 -135l139 -18l5 -45q12 -162 12 -194v-50l-594 -29q-23 51 -29 234v61l135 33q83 454 211 961l43 170q90 22 324 -4l92 -9l399 -1128h119z" />
    <glyph glyph-name="B" unicode="B" horiz-adv-x="1327" 
d="M872 422q0 66 -66 94t-130 25l-64 -4l-2 -236q262 0 262 121zM604 848q0 -4 56 1t114 38q57 33 58 103t-55 100q-56 31 -113 24l-56 -8zM1272 328q0 -70 -29 -141t-79 -113t-129 -69q-249 -82 -963 -13q-8 76 -5 194t13 133q10 14 113 9l32 -2l27 776q-19 10 -137 4
l-41 -2q-12 35 -14 114q-1 79 6 140l4 61q540 29 684 16t215 -48q71 -34 126 -73q54 -40 86 -107q31 -67 31 -145q-1 -142 -80 -233q-60 -65 -105 -88q-46 -24 -46 -26q21 -9 37 -17t51 -26t71 -48q132 -111 132 -296z" />
    <glyph glyph-name="C" unicode="C" horiz-adv-x="1308" 
d="M53 721q0 182 52 323q51 140 139 222q170 158 405 159q70 1 130 -21t85 -44l27 -21l22 121l62 -6q191 -13 260 -57q11 -44 -4 -381l-6 -129l-330 -41q-21 86 -55 126q-72 85 -163 85t-147 -88t-57 -252q0 -164 78 -245t170 -81q59 0 132 39t118 100q87 -91 221 -211
l47 -43l-16 -32q-11 -20 -55 -72t-97 -93q-53 -40 -147 -73t-210 -33t-233 49q-261 108 -369 372q-60 146 -59 327z" />
    <glyph glyph-name="D" unicode="D" horiz-adv-x="1382" 
d="M930 688q0 113 -22 191q-22 79 -54 111q-75 75 -152 66q-37 -5 -55 -5h-22q-33 -569 -15 -721q143 -18 232 59q88 78 88 299zM1348 710q0 -332 -103 -497q-103 -164 -254 -212q-150 -48 -337 -48q-186 -1 -376 19t-194 18l-2 35q-2 33 -6 81q-18 212 -8 226q16 10 125 16
l36 4l23 707q-158 -15 -163 -15t-29 171q-23 171 -15 177q32 22 192 38q159 16 345 12t276 -21q490 -90 490 -711z" />
    <glyph glyph-name="E" unicode="E" horiz-adv-x="1325" 
d="M1286 504q0 -10 -19 -263t-21 -254t-562 5q-559 6 -564 1t-3 71q2 75 4 151t11 85t97 9h29l10 826l-137 -13l-27 324q4 12 818 12l272 -2q31 -47 26 -260q-2 -101 -12 -201v-18q0 -4 -140 -6t-154 -1q-14 0 -19 76q-6 76 -7 79t-115 5t-118 -2t-2 -118t5 -116q2 -1 56 -3
q156 -6 156 -10q0 -9 4 -75q4 -67 6 -110q1 -42 2 -68t-1 -30q-35 0 -131 -7t-100 -11t-3 -267q20 -10 134 -1t114 12l57 217q0 8 167 -14q167 -21 167 -23z" />
    <glyph glyph-name="F" unicode="F" horiz-adv-x="1261" 
d="M866 279q0 -2 10 -75t21 -147l8 -71l-815 -6q-4 16 -7 142t5 136l176 21q-8 809 -13 817t-132 14l-41 2q2 270 28 322q1056 -12 1064 -16q15 -9 22 -324l4 -107l-285 -41q-12 16 -18 109l-4 30l-223 2q6 -256 10 -256q10 0 108 -11t99 -15q0 -23 -4 -159t-7 -136l-206 -4
q-5 -22 1 -117q7 -96 9 -98t50 -4t94 -4t46 -4z" />
    <glyph glyph-name="G" unicode="G" horiz-adv-x="1583" 
d="M778 1106q-133 0 -213 -125t-82 -283t86 -276q88 -119 232 -119q61 0 101 33t48 65l8 31l-172 -2q-16 18 -22 90t-4 135l2 62q105 19 512 -12l160 -11q20 -96 40 -359t19 -335q0 -6 -248 -18l-82 -5l-20 140q-47 -63 -149 -121t-220 -59q-336 1 -526 199t-193 550
q-3 204 59 358t168 242q211 174 488 174q174 0 277 -84q7 32 16 121q6 0 165 -27t161 -30l-37 -500l-348 -29q-47 195 -226 195z" />
    <glyph glyph-name="H" unicode="H" horiz-adv-x="1540" 
d="M671 287q32 0 33 -6q9 -56 16 -166q7 -109 3 -111q-16 -6 -314 -8t-325 18q-14 26 -13 134t7 114t43 11t72 10l34 2l-28 845q-119 -4 -129 7q-7 27 4 223l4 76l592 -11l14 -290l-143 -15l10 -225l395 -18l-4 251q-119 12 -121 12q-9 2 -16 114q-6 112 -4 167
q216 50 545 9l129 -15q-6 -281 -11 -280l-151 -25l26 -809l142 -16v-293q-41 0 -99 -1t-219 -3q-160 -2 -218 -1t-99 1l-6 299l143 14l-6 270l-416 13q-4 -299 6 -299l54 2h50z" />
    <glyph glyph-name="I" unicode="I" horiz-adv-x="899" 
d="M213 283h35l-29 847q-119 -4 -129 7q-7 27 4 223l4 76l674 10l14 -291l-184 -35l27 -827q178 0 178 -14q0 -25 6 -146t-2 -129q-16 -6 -348 -8t-359 18q-14 27 -13 141t9 121q7 7 113 7z" />
    <glyph glyph-name="J" unicode="J" horiz-adv-x="1210" 
d="M512 309q57 0 91 39t34 105l-10 622q-213 -4 -227 -1t-25 123q-10 120 -10 212q100 25 291 34q190 9 332 7t145 -6q23 -76 28 -344l-137 -23q16 -305 14 -635q-2 -147 -48 -256q-46 -110 -121 -164q-147 -106 -316 -106q-101 0 -193 33t-149 79q-115 93 -160 171l-18 32
l151 148q96 86 112 83t43 -42q28 -39 72 -75t101 -36z" />
    <glyph glyph-name="K" unicode="K" horiz-adv-x="1435" 
d="M233 -4h-143q-2 6 -10 145t-2 140l147 10l-4 846q-160 12 -162 15t2 134q5 131 7 135q2 3 274 15t281 6q6 -8 6 -150t-4 -149l-86 -35v-211q297 262 297 274q0 6 -44 9t-47 8q-2 6 -10 124t-8 130q0 4 150 6q151 2 301 -1t149 -9v-273q-4 -6 -53 -12t-53 -9
q-5 -3 -143 -136q-138 -134 -144 -144t152 -291t165 -285q8 -4 95 -9l28 -5q2 -2 9 -130t1 -132t-303 -13t-309 7q-10 30 -18 149t-6 119l34 -4q83 -5 90 -2q0 6 -92 192t-100 193q-8 6 -66 -50t-71 -73q-4 -18 -2 -64t4 -110l4 -65q0 -5 63 -15t64 -12l-8 -258
q0 -10 -435 -10z" />
    <glyph glyph-name="L" unicode="L" horiz-adv-x="1177" 
d="M770 1177q0 -47 -4 -49l-168 -22q-13 -110 -23 -453q-10 -342 -8 -342q207 0 210 6q3 5 37 133t34 134t133 -12t137 -22q4 -2 7 -146t3 -266t-2 -142h-12q-1063 -16 -1063 4q0 6 -3 140t-1 159q2 2 71 5q68 3 70 5t7 343t14 472q-6 4 -33 4l-94 -4q-6 2 -12 157t6 165
q12 4 350 -4t338 -10l2 -15v-33l4 -158v-49z" />
    <glyph glyph-name="M" unicode="M" horiz-adv-x="1636" 
d="M895 285q137 0 137 6l4 571q-143 -215 -147 -215l-29 -4q-30 -2 -64 -5q-92 -8 -96 -5q-3 3 -112 174l-37 55l2 -133q12 -405 12 -418q0 -6 73 -13t73 -9l4 -76q11 -217 8 -217l-645 10l-3 28q-26 259 -7 267q6 4 74 4t69 4q0 745 -6 789q0 6 -29 6q-30 0 -56 -1t-40 6
t-20 167q-5 160 3 168q9 8 243 8t242 -5t114 -175t118 -195q8 17 129 189t128 177t257 7t250 -6l2 -152q2 -152 2 -162q0 -20 -149 -20q-2 0 -2 -199t2 -401t6 -209q4 -6 43 -8t77 -3t38 -7l16 -299h-174q-514 0 -514 20q0 281 4 281z" />
    <glyph glyph-name="N" unicode="N" horiz-adv-x="1468" 
d="M784 1147q-2 0 -16 131t-4 154q12 4 333 6t320 -2l2 -31q2 -31 3 -71t4 -109t-7 -68q-10 0 -73 -7t-64 -9l4 -121q2 -123 6 -288q17 -712 11 -746q-2 0 -158 -12t-162 -1l-434 729q0 -399 7 -407t43 -13q36 -6 70 -10q33 -4 33 -8t13 -115t4 -135q-5 -5 -103 -9
q-98 -3 -229 -9t-186 -7t-90 -1t-33 2q4 6 -7 131t-10 127q4 2 69 11t69 12t0 313t-13 483q-22 -2 -74 -2t-57 4q-4 4 -16 179q-12 174 -7 178t112 4l202 -3q45 0 78 -2h33l504 -714q8 28 -5 315l-4 111q-166 10 -168 10z" />
    <glyph glyph-name="O" unicode="O" horiz-adv-x="1488" 
d="M760 373q108 0 175 81t67 255t-60 276q-59 102 -182 102q-274 0 -275 -376q0 -166 83 -252q84 -86 192 -86zM61 731q0 561 431 697q123 40 272 40q297 0 481 -198q185 -198 185 -523q0 -326 -158 -547q-78 -110 -208 -173t-298 -64q-326 1 -516 189t-189 579z" />
    <glyph glyph-name="P" unicode="P" horiz-adv-x="1214" 
d="M584 840q0 -6 54 -1t108 40t54 101t-56 94t-113 24l-56 -4zM782 279q6 -1 8 -139q1 -138 -4 -144q-51 -10 -503 0l-172 4q-2 0 -21 133t-2 160q17 10 113 10h30q-18 795 -24 797l-139 -4l-9 336q37 10 323 10t366 -10q78 -10 156 -39t132 -78q53 -49 86 -134t31 -198
q-4 -463 -571 -463v-123l2 -73v-11q0 -2 96 -18t102 -16z" />
    <glyph glyph-name="Q" unicode="Q" horiz-adv-x="1540" 
d="M1030 680q0 406 -258 405q-143 -1 -219 -113t-76 -272t74 -274t219 -113q260 2 260 367zM76 742q0 310 186 516q186 208 486 208t494 -190t194 -569q0 -635 -451 -746q0 -55 42 -85q12 -9 36 -13q88 -20 223 65q12 -28 32 -70t48 -126q29 -84 25 -111q-33 -61 -159 -99
t-249 -14t-208 76q-135 84 -192 253q-22 63 -26 122q-229 59 -355 266t-126 517z" />
    <glyph glyph-name="R" unicode="R" horiz-adv-x="1429" 
d="M813 1019q0 60 -64 83q-65 23 -131 16l-65 -4v-42l-2 -172v-34l45 2q45 0 91 8t86 45q40 38 40 98zM551 268q88 0 88 -8v-260l-547 6l-4 26q-35 245 -3 243q32 -1 80 5t48 15v821q-131 -4 -135 5t0 160t10 157q35 4 250 -1t288 -5q232 0 347 -36q260 -80 260 -341
q0 -201 -128 -333q-30 -30 -50 -42l-21 -12l199 -406q121 4 121 0l2 -41q2 -43 8 -130t1 -97t-312 -7t-310 15q-4 18 -4 136t9 118q94 0 94 10t-69 160t-73 149l-155 -16q-10 1 -6 -145t12 -146z" />
    <glyph glyph-name="S" unicode="S" horiz-adv-x="1161" 
d="M585 1159q-46 1 -83 -23t-37 -67t37 -72t130 -75q92 -46 156 -82q241 -140 293 -295q25 -72 25 -162q0 -170 -124 -288t-282 -118q-217 0 -317 115q-2 -18 -4 -51t-4 -53l-2 -23l-310 19q-4 45 -4 520q213 47 322 31q27 -97 80 -155t103 -58t83 24t33 64q0 75 -56 117
t-198 110q-86 45 -136 79q-150 102 -195 230q-28 80 -27 184q0 158 120 264q121 105 322 105q150 0 227 -82l15 99q213 8 313 -35q5 -3 -9 -222q-15 -219 -16 -243q0 -29 -239 -26q-80 1 -80 5q-6 82 -48 123t-88 41z" />
    <glyph glyph-name="T" unicode="T" horiz-adv-x="1429" 
d="M205 854q-137 6 -164 6q-6 0 -7 135q-3 402 19 428q21 21 652 41q630 19 632 14q2 -6 6 -306q5 -300 3 -308t-136 -5t-139 9l-27 254q-141 -2 -151 -4q-5 -20 9 -332q13 -313 18 -401l4 -86q0 -4 102 0t115 0q6 -6 12 -142q6 -137 0 -151t-438 -15t-433 3t2 143t5 142
l63 4q185 18 187 30l-17 805l-170 -2q-10 -252 -10 -260t-137 -2z" />
    <glyph glyph-name="U" unicode="U" horiz-adv-x="1505" 
d="M592 528q0 -56 43 -104q43 -47 130 -47t130 42t43 113l-2 594h-121l-4 306q59 20 479 14l135 -4q12 -283 13 -287l-119 -35q2 -510 2 -600q0 -258 -143 -402q-142 -144 -410 -144t-416 150q-147 151 -147 419l-4 571l-150 23l-12 280l649 21q2 -8 8 -152t0 -153l-110 -17
q6 -532 6 -588z" />
    <glyph glyph-name="V" unicode="V" horiz-adv-x="1509" 
d="M760 -6q-162 0 -171 6t-302 823l-97 275q-109 16 -124 16q-10 0 -8 161q3 161 8 161q627 -4 634 -5t25 -243l4 -80q-97 -14 -111 -14t115 -351l41 -116q9 27 89 252t75 225l-104 -4q-4 0 -18 164q-13 164 -9 168t319 3q316 -1 318 -5t1 -168t-3 -169t-137 -6
q-4 0 -184 -541t-190 -547q-9 -5 -171 -5z" />
    <glyph glyph-name="W" unicode="W" horiz-adv-x="1998" 
d="M1950 1421q6 1 6 -77v-232q-131 -10 -133 -10l-267 -1106q-282 -4 -288 -4t-134 271t-133 272q-4 -1 -66 -137t-124 -271l-61 -137q-240 0 -256 6q-10 4 -151 557q-140 553 -145 560q-4 7 -64 15t-81 9q-13 0 16 208l9 66q670 10 676 10q6 -1 4 -143t0 -158q0 -5 -50 -8
q-50 -2 -70 -3t-30 -1h-16q-2 0 26 -110t59 -220q32 -110 34 -106q2 2 47 114t90 222l45 112q199 0 215 -8q2 0 63 -118t122 -232l61 -111l84 457q-199 0 -211 6q-4 2 -6 150t1 152q3 5 728 5z" />
    <glyph glyph-name="X" unicode="X" horiz-adv-x="1542" 
d="M926 1176q-80 0 -92 4q-11 22 2 190l4 66q578 0 582 -3t8 -133t1 -134q-3 -5 -31 -5t-54 2l-27 2l-303 -430l340 -448q104 -7 110 -15q13 -16 13 -196l2 -62l-621 -20l-10 258l102 16q-152 205 -154 205t-83 -106q-82 -107 -82 -109q-1 -2 21 -3t46 -3t29 -2
q10 -2 10 -244q1 -6 -630 -6q-6 6 10 252l2 31l119 10l319 407l-338 465q-86 -2 -102 -2q-10 1 -10 145t-5 148q-2 2 31 2l600 -12q16 0 10 -201v-65l-108 -6l143 -201q10 12 26 34q15 21 69 95t51 74z" />
    <glyph glyph-name="Y" unicode="Y" horiz-adv-x="1437" 
d="M978 283q60 0 66 -6q4 -6 5 -273q1 -6 -317 -13t-322 -5t-7 141q-2 139 0 141q27 0 83 10q57 10 57 11v395q0 4 -77 108t-155 205q-78 100 -80 99q-2 -2 -80 8q-77 10 -77 12v158q2 158 2 162l602 -11l22 -280q-2 -4 -98 -4l35 -39q35 -41 72 -82l34 -41q8 10 37 42
t64 80q36 48 35 50q-2 2 -82 2q-6 2 -4 142q2 141 4 143t276 -3q275 -5 285 -9t19 -140q9 -135 4 -140t-124 -5l-346 -463q7 -362 7 -378t60 -17z" />
    <glyph glyph-name="Z" unicode="Z" horiz-adv-x="1314" 
d="M129 10q-2 0 -14 81t-25 163q-12 82 -10 84q0 2 344 406t334 403q-266 0 -283 -10l-41 -181q-260 16 -280 27q-12 10 -13 229q0 219 4 224q1067 2 1067 -6q0 -2 21 -148t14 -149q-15 -5 -329 -399t-312 -394q18 0 176 8t160 11t18 114t21 113q39 0 145 -6t115 -19
q11 -55 -4 -414l-6 -137h-1102z" />
    <glyph glyph-name="bracketleft" unicode="[" horiz-adv-x="808" 
d="M725 1363q0 -120 -2 -132q-4 -3 -141 -17q-136 -14 -152 -14t-2 -1417v-6l289 -8q2 -258 -4 -263t-195 2q-188 7 -254 10t-110 3l-45 2l-13 1933l625 27q4 0 4 -120z" />
    <glyph glyph-name="backslash" unicode="\" horiz-adv-x="1024" 
d="M80 1436q0 11 174 80l59 24q5 -4 309 -740t304 -742t-98 -68q-98 -64 -120 -70t-325 746t-303 770z" />
    <glyph glyph-name="bracketright" unicode="]" horiz-adv-x="808" 
d="M102 1342q0 120 4 120l625 -6q-51 -1933 -53 -1933q-553 0 -560 4t-7 69v193l245 -10l43 -2v6q14 1417 0 1417q-285 0 -295 10q-2 12 -2 132z" />
    <glyph glyph-name="asciicircum" unicode="^" horiz-adv-x="872" 
d="M197 1159q-33 6 -121 155q-20 34 -35 58l-14 23q-8 -1 87 71q285 215 295 218q10 2 328 -211l107 -72q-141 -211 -174 -227l-238 159z" />
    <glyph glyph-name="underscore" unicode="_" horiz-adv-x="1110" 
d="M1040 -10q0 -6 -7 -91t-9 -89t-464 -10t-472 -1q-8 5 -2 103t12 102q942 -8 942 -14z" />
    <glyph glyph-name="grave" unicode="`" horiz-adv-x="872" 
d="M90 1356q-9 4 50 145q59 140 66 142t445 -152l144 -51q-74 -238 -107 -254q-6 -2 -290 80t-308 90z" />
    <glyph glyph-name="a" unicode="a" 
d="M572 328q66 0 112 52q45 52 45 136t-44 142q-45 58 -115 58t-116 -50t-46 -140t49 -144t115 -54zM1274 -2q-35 0 -250 5t-215 9l-21 105q-4 -5 -10 -15t-32 -32q-101 -87 -254 -88q-153 0 -290 113q-71 58 -114 171t-43 257q0 382 298 484q156 53 314 0q76 -26 113 -53
l37 -24v102q272 10 434 4q0 -4 3 -72t5 -135l4 -65q-5 0 -77 -16t-74 -19l4 -432q170 0 173 -11q3 -12 2 -150t-7 -138z" />
    <glyph glyph-name="b" unicode="b" 
d="M618 511q0 -95 40 -149t104 -55q64 0 100 53q35 53 35 154q0 223 -143 223q-59 0 -98 -65q-38 -66 -38 -161zM830 1047q454 -1 454 -539q0 -136 -48 -248t-126 -172q-155 -117 -320 -117t-234 81q-5 7 -7 14l-21 -62q-2 -2 -36 -2q-94 0 -254 10l-31 2l4 1135l-168 25
l2 65q10 165 10 207q0 8 404 29l133 8v-512q28 28 96 52t142 24z" />
    <glyph glyph-name="c" unicode="c" horiz-adv-x="1136" 
d="M610 344q94 0 156 82q37 -8 110 -64t128 -108l55 -53q-8 -21 -54 -70q-45 -49 -90 -79t-123 -54t-167 -25q-250 -1 -411 147t-161 410q0 136 44 242t117 166q148 122 325 123q70 -1 126 -17t76 -32l23 -15l18 105h21q196 -20 258 -62q12 -35 -4 -307l-4 -106l-330 -45
q0 14 -16 60q-16 45 -50 66q-35 21 -67 19q-58 -2 -102 -51q-44 -48 -44 -142t52 -142t114 -48z" />
    <glyph glyph-name="d" unicode="d" 
d="M420 512q0 -98 37 -152t101 -55q64 0 102 54q38 53 38 149t-38 162t-97 65q-143 0 -143 -223zM43 509q0 531 449 538q78 1 138 -19t83 -39l22 -18v213q-150 23 -157 28q-9 21 4 193l4 63h530l2 -1155l164 -10l2 -303l-48 -2q-50 -2 -119 -3t-188 -4t-126 3l-25 74
q-8 -15 -30 -32q-79 -59 -234 -59t-302 114q-75 58 -122 170t-47 248z" />
    <glyph glyph-name="e" unicode="e" horiz-adv-x="1062" 
d="M401 584l250 153q-6 17 -33 35t-55 19q-101 -1 -147 -69t-15 -138zM35 536q0 272 149 403q150 130 375 130q168 0 306 -110t145 -189l-56 -209l-395 -217q31 -37 363 -37q-4 -113 -35 -278l-10 -52q-387 -29 -615 129q-227 158 -227 430z" />
    <glyph glyph-name="f" unicode="f" horiz-adv-x="919" 
d="M127 999q80 0 80 2v55q0 146 52 263t166 171q113 53 319 -11q103 -33 157 -66l55 -35l-168 -270q-80 47 -157 47q-29 0 -43 -39t-15 -76v-39l244 -14q11 -43 15 -119t-1 -129l-2 -53l-251 4l6 -354l178 -12l10 -324q-660 -8 -674 0t-30 154t-10 148q6 3 88 16
q81 13 81 18l-24 360l-156 -2l-4 301q4 4 84 4z" />
    <glyph glyph-name="g" unicode="g" 
d="M414 540q0 -90 49 -144t115 -54t112 52q45 52 45 136t-44 142q-45 58 -115 59q-70 0 -116 -51t-46 -140zM1153 14q0 -128 -49 -227q-48 -99 -104 -154t-148 -92t-213 -37t-214 31t-126 62l-31 30l117 295q82 -72 231 -72q109 0 151 94t13 158q-8 -12 -26 -29t-91 -46
t-149 -29q-233 0 -366 171q-105 137 -105 376q0 375 300 478q77 26 158 26t157 -26t112 -52l37 -25v103q272 10 434 4q0 -4 3 -83t5 -155l4 -76q-4 0 -66 -16t-65 -18q31 -430 31 -691z" />
    <glyph glyph-name="h" unicode="h" 
d="M55 1454q0 10 371 16l125 5v-476q29 29 97 53t147 23q420 0 419 -524l-2 -268l86 -19q14 -201 0 -266l-530 6l-10 260l100 19l-2 219q0 207 -156 207q-61 -1 -107 -59t-46 -148l2 -226l123 -26l4 -246q-6 -6 -146 -6h-202l-190 2h-29q-15 105 -15 262l115 8l2 883
l-168 23l2 65q10 170 10 213z" />
    <glyph glyph-name="i" unicode="i" horiz-adv-x="872" 
d="M622 -2h-252l-238 2h-38q-14 98 -14 262l176 8l2 416q0 2 -27 1t-55 -2t-55 -3l-27 -2l-33 278q0 6 113 12q332 16 459 -14v-680l168 -26l4 -246q-7 -6 -183 -6zM430 1151q-100 0 -158 55q-57 54 -60 152t56 156q60 58 144 58t148 -60q64 -62 65 -148q0 -86 -47 -150
q-48 -63 -148 -63z" />
    <glyph glyph-name="j" unicode="j" horiz-adv-x="677" 
d="M172 -143q86 0 86 131q0 132 -20 328t-39 280l-138 18l-10 342q492 4 500 -10q27 -51 51 -375t25 -480q0 -157 -6 -215t-30 -132t-64 -127q-41 -53 -113 -91t-170 -38t-188 33t-132 65l-41 35l168 277q43 -41 121 -41zM363 1151q-100 0 -158 55q-57 54 -61 152t56 156
t144 58t149 -60q65 -62 65 -148t-48 -150q-47 -64 -147 -63z" />
    <glyph glyph-name="k" unicode="k" horiz-adv-x="1435" 
d="M205 -4h-142q-2 6 -10 142t-2 136l148 11l-4 852q-160 2 -162 5t2 134t6 135t231 36t238 26q31 -23 35 -235q2 -101 2 -192q0 -90 -2 -218t-2 -187q213 115 213 127q0 6 -45 17t-47 17t-11 110q-8 105 -8 118q64 10 354 -2q289 -12 289 -18v-273q-2 -6 -70 0t-73 2
q-7 -4 -105 -86t-104 -91t141 -150q147 -140 155 -144t43 -7q34 -3 64 -7l33 -4q2 -2 9 -124t1 -126t-322 -12t-329 8q-10 31 -18 143q-8 113 -6 113q8 0 43 7t34 11q-26 29 -120 107t-109 61q-6 -8 -6 -153q0 -5 43 -15t43 -12l-8 -252q0 -10 -422 -10z" />
    <glyph glyph-name="l" unicode="l" horiz-adv-x="872" 
d="M119 1192q-4 0 -20 135q-15 135 -15 142t112 17q293 27 439 3v-1192l168 -14l4 -279q-5 -6 -177 -6h-246l-230 2h-37q-35 140 -35 283l176 28l-6 858q-2 3 -66 13t-67 10z" />
    <glyph glyph-name="m" unicode="m" horiz-adv-x="2009" 
d="M76 715q-2 0 -22 148q-19 148 -19 158t305 69l100 18l54 -135q10 13 28 31t84 50t137 31q256 0 342 -143q90 133 345 133q162 0 285 -101q67 -54 105 -162t38 -259l-15 -266l109 -19q14 -199 0 -264l-570 -2l-8 258l84 27l-2 235q0 102 -29 146t-88 43q-59 0 -98 -41
t-41 -113l-2 -270l88 -13q12 -213 0 -278l-528 14l-8 258l96 19l-2 235q0 205 -131 205q-55 0 -91 -57t-36 -148l2 -241l86 -27l4 -244q-7 -8 -572 -8q-14 98 -14 264l125 21l2 418q-10 10 -143 10z" />
    <glyph glyph-name="n" unicode="n" 
d="M795 1075q420 0 419 -524l-2 -268l86 -19q14 -201 0 -266l-530 6l-10 260l100 19l-2 219q0 207 -156 207q-61 -1 -107 -59t-46 -148l2 -226l123 -26l4 -246q-6 -6 -152 -6h-209l-196 2h-31q-14 98 -14 262l135 8l2 490q-8 2 -33 0t-57 -4l-33 -2l-33 286q0 11 305 41
l101 13l65 -148q10 14 30 36t91 58q70 36 148 35z" />
    <glyph glyph-name="o" unicode="o" horiz-adv-x="1124" 
d="M414 505q0 -89 52 -143t114 -53q62 0 102 49q39 48 39 140t-36 153q-35 61 -113 61t-118 -58q-40 -60 -40 -149zM41 513q0 282 146 410q147 128 377 128q230 1 370 -143t139 -386q0 -242 -127 -402q-127 -161 -373 -161t-389 136t-143 418z" />
    <glyph glyph-name="p" unicode="p" 
d="M633 510q0 -94 38 -156t97 -63q143 0 143 215q0 98 -37 152q-36 54 -100 54t-102 -54t-39 -148zM1280 482q0 -136 -41 -244t-111 -163q-132 -102 -305 -102q-78 1 -137 17t-80 33l-20 16v-203q199 -23 206 -28q7 -4 8 -76t0 -131t1 -70h-740l-12 279l156 12l-2 854h-152
l-14 303l113 18q342 53 350 45l43 -90q6 10 22 26t85 40q129 47 275 11t250 -164q105 -127 105 -383z" />
    <glyph glyph-name="q" unicode="q" horiz-adv-x="1216" 
d="M420 511q0 -198 136 -198q68 -1 106 53t36 147q0 93 -40 144t-107 52q-131 0 -131 -198zM727 -479h-180v280l184 33v209q-24 -24 -92 -45q-69 -21 -151 -21t-157 24t-145 78t-109 163q-40 110 -40 260t43 262q73 191 257 261q75 28 159 28t155 -22q72 -22 97 -44l24 -20
q39 84 43 96q10 10 242 -32l76 -13l-17 -1192q2 -2 75 -9t81 -7l-2 -68l-2 -213q0 -8 -541 -8z" />
    <glyph glyph-name="r" unicode="r" horiz-adv-x="1171" 
d="M780 1063q80 0 161 -38t121 -75t38 -50t-56 -86t-105 -136q-52 -63 -56 -60q-82 82 -159 82t-126 -57t-49 -133q0 -142 16 -213l209 -27l4 -266q-6 -6 -177 -6h-246l-230 2h-37q-14 112 -14 283l135 8l2 481q-8 2 -33 0t-57 -4l-33 -2l-33 266q0 7 310 58l104 14l66 -139
q8 10 24 26q17 16 79 44t142 28z" />
    <glyph glyph-name="s" unicode="s" horiz-adv-x="1024" 
d="M438 264q76 0 76 53q0 39 -28 57q-56 35 -142 66q-195 89 -242 209q-23 59 -22 135q0 115 101 201t252 86t218 -59l13 71q205 6 292 -24q6 -3 -7 -178q-13 -174 -13 -187q-15 -12 -148 -3t-133 14q-4 45 -37 67t-69 23q-63 0 -64 -52q0 -18 28 -35q27 -17 93 -44t94 -41
q106 -49 182 -141t74 -215q0 -124 -100 -209t-238 -85q-193 0 -266 68l-10 -84l-279 23q-4 31 -4 393q61 10 151 12t103 -2q19 -55 55 -87t70 -32z" />
    <glyph glyph-name="t" unicode="t" horiz-adv-x="1032" 
d="M197 707q0 2 -71 2t-75 4l4 301l148 16q23 238 22 242q25 16 117 32t172 21l80 6l12 -313l258 4q14 -203 -12 -301l-270 -14q-23 -346 55 -347q55 0 129 50l22 14l148 -295q-8 -6 -22 -18q-49 -44 -156 -100q-108 -56 -236 -56t-189 59q-34 33 -58 64t-38 92
q-15 61 -27 121t-13 231v185z" />
    <glyph glyph-name="u" unicode="u" 
d="M1278 -4q0 -6 -289 -12h-96l-35 90q-49 -41 -128 -71t-161 -30q-166 0 -287 102q-139 115 -139 423l2 233l-86 8q-7 42 -18 150q-10 108 0 125l469 33q0 -137 2 -494q0 -207 145 -207q59 0 97 57q37 57 37 150l-3 145l-135 7l-16 290l508 39v-702q2 -2 64 -14
q61 -12 65 -13q4 0 4 -309z" />
    <glyph glyph-name="v" unicode="v" horiz-adv-x="1419" 
d="M901 1036h209l197 -2h30q15 -105 15 -262l-123 -8q-254 -590 -379 -776q-248 -14 -334 6q-291 602 -321 770l-129 6q-10 56 -20 153q-11 97 -1 113l612 -6l11 -262l-115 -4l156 -348l147 342l-102 6l-4 266q6 6 151 6z" />
    <glyph glyph-name="w" unicode="w" horiz-adv-x="1998" 
d="M1506 1036h215l203 -2h32q14 -112 14 -272l-123 -8q-203 -580 -327 -766q-166 -14 -252 6l-279 446l-248 -452q-186 -14 -272 6q-250 596 -281 764l-129 6q-7 39 -18 147q-12 109 -2 125l612 -6l11 -268l-109 -4l109 -250l245 434l187 -6l272 -432l98 248l-116 6l2 272
q6 6 156 6z" />
    <glyph glyph-name="x" unicode="x" horiz-adv-x="1372" 
d="M1241 774q0 -29 -3 -33t-52 -5t-52 -4q-4 -3 -90 -101q-86 -99 -92 -109t109 -123t123 -115t34 -6q26 -3 48 -8l24 -4q2 -2 9 -129t1 -131t-280 -8q-276 -4 -289 12q-10 31 -18 145q-8 113 -6 113q8 0 43 7t34 12l-114 129l-92 -129q0 -3 30 -11t37 -8q2 0 8 -114
t-6 -148q-11 -16 -285 -13t-280 7t-9 134t-1 132q22 4 60 10q38 5 45 8q7 4 103 116t91 122q-6 10 -89 106t-87 98q-4 3 -72 -3t-70 0v287q-1 6 145 11t271 5t145 -4q0 -2 6 -66q16 -185 13 -190q-3 -6 -48 -6t-45 -6q1 -6 91 -115l28 -33q127 147 127 160q0 6 -45 2t-51 0
q-2 4 -2 41l4 201q0 4 251 15t296 -3l2 -101v-147z" />
    <glyph glyph-name="y" unicode="y" horiz-adv-x="1419" 
d="M205 -352q-9 0 143 238t148 239q-287 471 -318 639l-112 6q-10 56 -20 153q-11 97 -1 113l612 2l11 -270l-115 -4l156 -289l147 283l-102 6l-4 266q11 11 529 -6l58 -2q2 -17 9 -111q6 -94 6 -151l-113 -6q-555 -1094 -680 -1280q-21 3 -89 23q-216 61 -265 151z" />
    <glyph glyph-name="z" unicode="z" horiz-adv-x="1173" 
d="M782 420q297 0 310 -19q9 -29 -2 -299l-7 -100h-968q-2 0 -28 135t-25 137t271 255t265 253q-10 0 -100 10t-92 7l-23 -131q-289 20 -305 28q-10 24 0 254l6 86q940 0 940 -6l41 -266q-2 -2 -55 -49t-127 -116t-148 -137t-125 -114l-49 -47l33 -2l178 -2q0 7 4 65t6 58z
" />
    <glyph glyph-name="braceleft" unicode="{" horiz-adv-x="841" 
d="M240 -180v534q0 46 -136 76q-49 10 -56 15t-10 135t1 133q4 4 64 6q61 2 119 19t59 59l14 377q0 84 41 150t99 104q58 36 152 67t204 31q23 -57 15 -157q-7 -99 -13 -99q-254 -37 -254 -148q1 -214 -3 -294t-25 -132t-68 -84q-47 -33 -76 -43q6 -4 17 -10
q88 -48 130 -127q18 -35 18 -72l-6 -483q0 -47 62 -80t126 -44q62 -11 64 -3l2 -229q-2 -2 -56 -4t-134 9t-159 39q-79 27 -135 93t-56 162z" />
    <glyph glyph-name="bar" unicode="|" horiz-adv-x="473" 
d="M340 1522v-2026l-121 -16q-35 -2 -39 10t-15 1012t-4 1008q7 10 52 14t86 2t41 -4z" />
    <glyph glyph-name="braceright" unicode="}" horiz-adv-x="841" 
d="M307 1102q0 111 -252 147q-8 2 -19 99t11 153q110 -1 207 -25q98 -24 156 -57t100 -97q43 -64 43 -148l14 -377q1 -41 59 -57t118 -18q60 -1 63 -3q6 -11 9 -149t-4 -146t-59 -12q-145 -11 -145 -58v-544q0 -96 -56 -162t-135 -92t-159 -35q-80 -10 -134 -8t-56 4l2 229
q2 -8 64 1t125 41q62 32 63 79l-7 493q0 75 76 151q11 11 23 19t22 16l37 23q-60 20 -97 59q-67 70 -69 169v305z" />
    <glyph glyph-name="asciitilde" unicode="~" horiz-adv-x="1431" 
d="M464 793q68 0 140 -36q70 -36 119 -78t114 -78t113 -36q144 0 195 136q18 57 21 66t97 -58q95 -68 95 -72t-16 -37t-50 -83q-35 -50 -80 -97q-44 -47 -114 -81t-152 -34t-156 35t-114 77q-110 113 -210 112t-154 -51t-74 -86q-21 -36 -23 -36q-6 -6 -76 81q-69 87 -69 95
t17 34t53 65t81 75t110 62t133 25z" />
    <glyph glyph-name="uni00A0" unicode="&#xa0;" horiz-adv-x="716" 
 />
    <glyph glyph-name="exclamdown" unicode="&#xa1;" horiz-adv-x="630" 
d="M223 371q25 4 95 3t77 -10q8 -10 49 -144t82 -332t41 -330q-25 -16 -219 -16t-291 20q0 214 38 414t76 296t52 99zM305 584q-85 0 -149 61t-64 147t47 150t147 64t158 -56q56 -56 60 -152q4 -97 -55 -156q-60 -58 -144 -58z" />
    <glyph glyph-name="cent" unicode="&#xa2;" horiz-adv-x="1136" 
d="M618 731q-90 0 -141 -58q-51 -59 -51 -151t59 -133q50 86 181 330q-20 12 -48 12zM625 313q84 0 168 97q67 -15 219 -160l47 -49q-8 -21 -54 -70q-45 -49 -90 -79t-123 -54t-178 -25q-100 0 -215 37l-84 -147l-114 57q0 6 78 148q-225 152 -226 462q0 242 157 386
t363 145q125 0 242 -45l66 119q8 1 41 -15t61 -35l29 -16l-70 -119q76 -64 111 -125l10 -20q-104 -145 -219 -232q-4 4 -28 33q-23 28 -40 43l-190 -330q18 -6 39 -6z" />
    <glyph glyph-name="sterling" unicode="&#xa3;" horiz-adv-x="1196" 
d="M188 1073q0 189 136 287t357 98q220 0 369 -134q70 -63 70 -92q0 -30 -87 -140t-148 -144q-14 35 -60 67q-45 32 -91 32t-72 -30t-25 -85q0 -55 20 -148q221 -4 222 -6q1 -6 -7 -69t-10 -67t-180 -7q23 -182 -53 -256q0 -6 204 -8t228 -9q28 -98 22 -292q-2 -66 -8 -71
t-468 2t-478 3q-17 0 3 220q3 36 3 42q150 39 115 361q-139 0 -144 3t0 80q6 77 13 81q47 0 108 -3q-39 238 -39 285z" />
    <glyph glyph-name="currency" unicode="&#xa4;" horiz-adv-x="1179" 
d="M428 610q0 -76 50 -122t112 -46t100 43t39 119q0 76 -37 129q-36 53 -112 53t-114 -50t-38 -126zM172 625q0 102 31 176q-111 106 -99 121q6 6 65 82t64 69l105 -119q100 60 240 60t237 -64l141 131q117 -121 119 -139t-125 -156q29 -76 29 -163q0 -152 -76 -258
l129 -140q-2 -2 -66 -58t-83 -70q-19 -13 -156 141q-59 -20 -150 -20t-169 26q-132 -142 -150 -119q-2 4 -65 73t-54 72l101 95q-68 100 -68 260z" />
    <glyph glyph-name="yen" unicode="&#xa5;" horiz-adv-x="1437" 
d="M915 389l3 -115q0 -12 60 -12t66 -6q4 -6 5 -252q1 -6 -317 -13t-322 -5t-7 131q-2 129 0 131q18 0 79 9t61 11v107q-199 -6 -206 -4t-11 81t2 80q92 2 215 7v79q-270 -4 -279 0q-8 4 -2 81t12 81q119 -2 228 -2q-60 81 -164 200t-107 118q-2 -2 -80 8q-77 10 -77 12v35
q2 33 2 79l2 173q0 33 -2 33l602 -11l22 -280q-2 -4 -98 -4l35 -39q35 -41 72 -82l34 -41q8 10 37 42t64 80q36 48 35 50q-2 2 -82 2q-6 2 -4 142q2 141 4 143t276 -3q275 -5 285 -9t19 -140q9 -135 4 -140t-124 -5q-8 0 -284 -371l145 -4q0 -6 -7 -70t-9 -66q-2 -3 -191 -7
l2 -78q188 0 217 -6q4 -2 6 -68t-2 -70q-3 -4 -219 -12z" />
    <glyph glyph-name="brokenbar" unicode="&#xa6;" horiz-adv-x="473" 
d="M174 238q16 20 88 14t72 -8l6 -748l-121 -16q-35 -2 -39 10t-8 375t2 373zM168 1138q0 362 8 372t49 14t78 2t37 -4v-738l-66 -11t-90 -1q-16 4 -16 366z" />
    <glyph glyph-name="section" unicode="&#xa7;" horiz-adv-x="1183" 
d="M424 548q0 -64 48 -108t139 -91q91 -48 110 -60q39 45 39 115t-66 121q-66 52 -231 134q-39 -47 -39 -111zM688 -506q-182 0 -293 111l-16 -123q-147 -6 -236 24q-8 4 6 199q15 195 15 208t120 13t119 -4q7 -63 51 -107t105 -44q61 1 89 27t28 70t-62 88t-148 86
q-87 42 -174 94t-149 137q-61 85 -61 194q0 215 151 346q-6 3 -43 41t-57 77q-31 64 -31 154q0 147 106 258t288 111q116 0 188 -38l30 -15q12 -5 26 -17q13 -12 23 -18t25 -23l17 123q147 6 235 -24q6 -3 -7 -198q-13 -194 -13 -208t-120 -14t-120 4q-8 64 -51 108t-104 44
t-89 -27t-28 -67q0 -75 158 -132t282 -146q66 -46 110 -130t44 -195q0 -217 -154 -346q114 -114 128 -208q5 -34 5 -64q0 -147 -106 -258q-105 -111 -287 -111z" />
    <glyph glyph-name="dieresis" unicode="&#xa8;" horiz-adv-x="1134" 
d="M313 1159q-96 0 -150 53q-53 52 -57 146t52 150t135 56q80 0 142 -58q63 -60 63 -143t-44 -143t-141 -61zM1032 1363q0 -83 -44 -143t-140 -61q-96 0 -151 53q-54 52 -57 146t53 150t136 56q79 0 141 -58q62 -60 62 -143z" />
    <glyph glyph-name="copyright" unicode="&#xa9;" horiz-adv-x="1572" 
d="M410 714q0 196 102 292t246 96q41 0 76 -16t49 -33l14 -17l14 86l35 -2q113 -6 154 -33q4 -14 2 -76t-4 -134l-4 -72l-203 -31q-7 40 -41 73q-35 34 -78 34t-73 -44q-29 -44 -29 -125t40 -122t90 -41t90 29q39 29 44 34q42 -20 137 -112l29 -31q-6 -19 -36 -53
q-30 -35 -60 -58q-78 -59 -220 -59q-142 -1 -258 109t-116 306zM195 688q0 -266 180 -419t427 -153q246 0 400 146q154 145 154 410t-123 444q-134 197 -423 197q-153 0 -279 -51q-225 -91 -303 -338q-33 -109 -33 -236zM41 688q0 383 217 577q216 193 546 193t529 -194
t199 -514q0 -321 -171 -537q-85 -107 -226 -169t-324 -62q-342 0 -556 194t-214 512z" />
    <glyph glyph-name="ordfeminine" unicode="&#xaa;" horiz-adv-x="946" 
d="M417 1049q37 1 61 29t24 73t-24 76t-60 31t-63 -28q-25 -28 -25 -76t25 -77q26 -28 62 -28zM373 829q-106 0 -199 79q-92 79 -92 243t90 237t205 72q47 0 92 -15t68 -32l22 -14v61q175 5 281 2l8 -184q-2 0 -46 -9t-46 -12l4 -219q100 2 102 -5t1 -100t-3 -93
q-299 0 -299 8l-12 63q-5 -8 -17 -22t-57 -37t-102 -23z" />
    <glyph glyph-name="guillemotleft" unicode="&#xab;" horiz-adv-x="1161" 
d="M555 494q0 10 182 226q181 216 189 221t66 -37t58 -46t-98 -194t-97 -194t107 -182q106 -180 107 -186q0 -6 -71 -65q-70 -59 -74 -57t-186 253t-183 261zM66 438q0 8 202 276t209 273q8 6 83 -31q75 -36 73 -41l-252 -442l258 -436q-166 -106 -172 -111q-1 -2 -201 251
t-200 261z" />
    <glyph glyph-name="logicalnot" unicode="&#xac;" horiz-adv-x="1124" 
d="M88 637q-14 1 -10 105t6 104q31 6 893 22l4 -534q0 -10 -105 -24t-108 -3q-14 98 -14 324q-453 -23 -666 6z" />
    <glyph glyph-name="uni00AD" unicode="&#xad;" horiz-adv-x="716" 
 />
    <glyph glyph-name="registered" unicode="&#xae;" horiz-adv-x="1060" 
d="M483 1180h21q67 6 65 43q0 30 -61 24l-23 -2v-11l-2 -46v-8zM707 1245q0 -79 -64 -127l51 -96q39 2 39 0v-14q2 -16 2 -32v-50q-2 -4 -95 -3t-95 5t-1 46t3 46q12 4 20 4q0 4 -14 35t-16 31l-25 -3q-27 -2 -29 -2v-61l29 -2v-94l-172 2q-4 15 -5 31q-1 17 -5 41t4 24
q41 0 41 6v213q-41 0 -42 3q-1 2 0 56t3 58h41l139 -2q190 0 191 -115zM868 1107q0 161 -78 269t-256 109q-176 1 -263 -103t-87 -264t108 -252t254 -92t234 86t88 247zM1020 1149q0 -215 -121 -357t-351 -143q-230 0 -369 124q-138 125 -138 355t142 360q141 130 357 130
t348 -127t132 -342z" />
    <glyph glyph-name="macron" unicode="&#xaf;" horiz-adv-x="925" 
d="M809 1202l-696 -16q-10 0 -9 141q2 141 9 146q10 4 356 12t352 -2q4 -13 -2 -147t-10 -134z" />
    <glyph glyph-name="degree" unicode="&#xb0;" horiz-adv-x="651" 
d="M347 1057q42 -1 70 29q27 30 27 81t-25 88q-26 37 -78 37t-79 -35q-26 -35 -26 -86t34 -83t77 -31zM346 901q-285 0 -285 281q0 138 79 202t202 64t198 -72q74 -72 74 -192t-68 -202q-68 -81 -200 -81z" />
    <glyph glyph-name="plusminus" unicode="&#xb1;" horiz-adv-x="1273" 
d="M143 162q-14 0 -10 104t6 105l957 4q10 0 12 -94t-6 -99q-56 -26 -444 -32t-515 12zM748 973h430q2 -183 -6 -191t-213 -27t-209 -21t0 -112q4 -108 0 -112t-106 -8t-105 10q-4 14 -11 122q-6 109 -8 111t-214 -5t-217 -2q-5 6 -19 108t-7 102l459 6v394l226 -2v-373z
" />
    <glyph glyph-name="twosuperior" unicode="&#xb2;" horiz-adv-x="681" 
d="M598 980v-80q0 -68 -6 -71q-8 2 -242 -1t-238 0q-3 3 -13 82q-9 79 -7 98q26 28 92 92t99 102t33 56t-13 29q-12 11 -33 11q-45 0 -90 -36q-9 -9 -32 32q-66 116 -66 129q0 14 28 37q28 24 88 46t146 22t167 -47t81 -145t-156 -296l156 2q6 -12 6 -62z" />
    <glyph glyph-name="threesuperior" unicode="&#xb3;" horiz-adv-x="684" 
d="M279 1333q-29 0 -76 -28q-2 2 -5 6t-14 15q-10 10 -18 22t-32 41t-22 43q3 37 86 64q207 67 327 -20q67 -48 67 -141q0 -47 -23 -94t-51 -57q32 -16 59 -61q26 -44 25 -87q0 -100 -88 -162t-192 -63q-104 0 -161 46q-56 41 -71 73l-8 12q100 113 104 113q4 -1 16 -13
q34 -34 84 -34t50 43q0 59 -96 59q-6 11 0 88l2 29q33 0 47 1t33 12q18 11 18 36t-16 41t-45 16z" />
    <glyph glyph-name="acute" unicode="&#xb4;" horiz-adv-x="925" 
d="M821 1356q-586 -195 -599 -188q-13 6 -44 68t-53 120l-23 59l594 238q17 -4 74 -150q56 -145 51 -147z" />
    <glyph glyph-name="mu" unicode="&#xb5;" 
d="M657 346q59 0 97 57q37 57 37 150l-3 145l-135 7l-16 290l508 39v-702q2 -2 64 -14q61 -12 65 -13q4 0 4 -309q0 -6 -289 -12h-96l-35 90q-111 -100 -215 -101q-71 0 -141 29q4 -163 15 -309t7 -146l-348 -26q-41 914 -31 1210l-86 8q-7 42 -18 150q-10 108 0 125l469 33
q0 -137 2 -494q0 -207 145 -207z" />
    <glyph glyph-name="paragraph" unicode="&#xb6;" horiz-adv-x="1630" 
d="M684 1442q803 0 838 -10q9 -21 -2 -250l-7 -86q-61 0 -139 2l2 -1042v-531l-295 -4q-8 207 -5 839t7 740h-172q-47 -1081 -51 -1575l-295 -4q-11 246 4 846l4 235q-165 0 -307 83q-72 42 -115 119q-45 76 -47 184t31 193t85 133q139 128 464 128z" />
    <glyph glyph-name="periodcentered" unicode="&#xb7;" horiz-adv-x="630" 
d="M336 565q-100 -1 -158 55t-60 153q-3 97 56 155t143 59q84 0 149 -61q64 -62 64 -148t-47 -150t-147 -63z" />
    <glyph glyph-name="cedilla" unicode="&#xb8;" horiz-adv-x="608" 
d="M229 25q152 2 242 -5l-8 -124q15 -5 51 -27q113 -70 114 -185t-141 -183q-109 -49 -200 -64q-3 -2 -19 44t-28 92t-10 47t20 4q114 21 117 75q0 33 -36 53t-71 27l-35 4z" />
    <glyph glyph-name="onesuperior" unicode="&#xb9;" horiz-adv-x="638" 
d="M118 1320q-34 54 -34 58t106 91t107 85l174 -45l-6 -469q0 -2 40 -1t45 -4t5 -33v-47l-2 -76v-27l-2 -10q-2 -2 -418 -2l-4 196l102 2l9 267q-74 -35 -81 -37t-41 52z" />
    <glyph glyph-name="ordmasculine" unicode="&#xba;" horiz-adv-x="651" 
d="M347 1057q42 -1 70 29q27 30 27 81t-25 88q-26 37 -78 37t-79 -35q-26 -35 -26 -86t34 -83t77 -31zM346 901q-285 0 -285 281q0 138 79 202t202 64t198 -72q74 -72 74 -192t-68 -202q-68 -81 -200 -81z" />
    <glyph glyph-name="guillemotright" unicode="&#xbb;" horiz-adv-x="1161" 
d="M66 41q0 6 106 216t108 213q2 4 -98 194q-98 190 -98 194t58 46t66 37t179 -242q172 -237 172 -247t-172 -270q-172 -262 -176 -264q-5 -2 -75 58t-70 65zM1069 442q1 -15 -199 -267q-200 -251 -202 -249l-172 111l258 436q-227 432 -232 442t70 40q74 30 86 30
q391 -537 391 -543z" />
    <glyph glyph-name="onequarter" unicode="&#xbc;" horiz-adv-x="1658" 
d="M1223 463h65l8 162q199 -6 201 -7l4 -163q76 0 76 -2v-172l-84 -5q-2 -96 -2 -98l16 -2q39 0 54 -6q6 -4 6 -172q0 -2 -398 -2l2 45v94l3 45l106 2l6 94l-260 13l2 102v205l2 102l193 7v-242zM1180 1475q14 1 89 -57t70 -75q-6 -29 -494 -713t-509 -669q-38 24 -105 89
t-65 67l252 342q748 1016 762 1016zM118 1320q-34 54 -34 58t106 91t107 85l174 -45l-6 -469q0 -2 40 -1t45 -4t5 -33v-47l-2 -76v-27l-2 -10q-2 -2 -418 -2l-4 196l102 2l9 267q-74 -35 -81 -37t-41 52z" />
    <glyph glyph-name="onehalf" unicode="&#xbd;" horiz-adv-x="1574" 
d="M1491 150v-79q0 -71 -6 -71q-9 2 -243 -1t-237 0t-13 82q-9 79 -7 97q25 28 91 92t100 103q32 39 32 56t-12 29t-33 11q-53 0 -90 -37q-9 -9 -32 32q-66 116 -66 130t27 37q28 23 88 45t147 22q86 0 167 -47t81 -144t-156 -296l156 2q6 -13 6 -63zM1180 1475q14 1 89 -57
t70 -75q-6 -29 -494 -713t-509 -669q-38 24 -105 89t-65 67l252 342q748 1016 762 1016zM118 1320q-34 54 -34 58t106 91t107 85l174 -45l-6 -469q0 -2 40 -1t45 -4t5 -33v-47l-2 -76v-27l-2 -10q-2 -2 -418 -2l-4 196l102 2l9 267q-74 -35 -81 -37t-41 52z" />
    <glyph glyph-name="threequarters" unicode="&#xbe;" horiz-adv-x="1658" 
d="M1223 463h65l8 162q199 -6 201 -7l4 -163q76 0 76 -2v-172l-84 -5q-2 -96 -2 -98l16 -2q39 0 54 -6q6 -4 6 -172q0 -2 -398 -2l2 45v94l3 45l106 2l6 94l-260 13l2 102v205l2 102l193 7v-242zM1180 1475q14 1 89 -57t70 -75q-6 -29 -494 -713t-509 -669q-38 24 -105 89
t-65 67l252 342q748 1016 762 1016zM319 1274q0 39 -34 39t-82 -29q-4 4 -11 15t-44 63t-36 68q2 38 105 74q57 20 137 20t158 -51t80 -138q2 -47 -16 -85t-33 -49q-14 -11 -25 -17q32 -16 59 -61q26 -44 25 -87q0 -100 -88 -162t-192 -63q-104 0 -161 46q-56 41 -71 73
l-8 12q100 133 104 133q4 1 31 -23t63 -24t35 31q0 51 -75 51q-6 11 0 88l2 29h22q55 0 55 47z" />
    <glyph glyph-name="questiondown" unicode="&#xbf;" horiz-adv-x="1087" 
d="M127 -2q0 383 384 442q103 16 228 6q9 -8 9 -85t-5 -148l-4 -72q-125 0 -164 -27q-40 -27 -40 -85q1 -57 29 -85t74 -28t95 33t74 65l22 33q9 -8 23 -20t49 -45q132 -125 127 -162q-10 -56 -108 -160q-50 -51 -134 -89t-178 -38q-211 0 -346 126t-135 339zM614 596
q-84 0 -148 61t-65 147t47 150t148 64t158 -55t60 -153q3 -98 -56 -156q-60 -58 -144 -58z" />
    <glyph glyph-name="Agrave" unicode="&#xc0;" horiz-adv-x="1435" 
d="M582 698l182 11l-102 266zM1376 293v-301l-573 -15q-15 9 -27 149t-2 144l105 6l-56 166l-276 4l-27 -135l139 -18l5 -45q12 -162 12 -194v-50l-594 -29q-23 51 -29 234v61l135 33q83 454 211 961l43 170q90 22 324 -4l92 -9l399 -1128h119zM315 1722q-10 5 50 145
q59 140 66 142t446 -151l143 -52q-74 -238 -107 -254q-7 -2 -291 80t-307 90z" />
    <glyph glyph-name="Aacute" unicode="&#xc1;" horiz-adv-x="1435" 
d="M582 698l182 11l-102 266zM1376 293v-301l-573 -15q-15 9 -27 149t-2 144l105 6l-56 166l-276 4l-27 -135l139 -18l5 -45q12 -162 12 -194v-50l-594 -29q-23 51 -29 234v61l135 33q83 454 211 961l43 170q90 22 324 -4l92 -9l399 -1128h119zM995 1745
q-586 -195 -599 -188t-44 69t-53 119l-23 59l594 238q17 -4 74 -150q56 -145 51 -147z" />
    <glyph glyph-name="Acircumflex" unicode="&#xc2;" horiz-adv-x="1435" 
d="M582 698l182 11l-102 266zM1376 293v-301l-573 -15q-15 9 -27 149t-2 144l105 6l-56 166l-276 4l-27 -135l139 -18l5 -45q12 -162 12 -194v-50l-594 -29q-23 51 -29 234v61l135 33q83 454 211 961l43 170q90 22 324 -4l92 -9l399 -1128h119zM399 1561q-30 5 -120 154
q-20 34 -35 59l-15 22q-12 0 182 143t201 146q8 3 328 -211l107 -72q-141 -211 -175 -227l-237 160z" />
    <glyph glyph-name="Atilde" unicode="&#xc3;" horiz-adv-x="1435" 
d="M582 698l182 11l-102 266zM1376 293v-301l-573 -15q-15 9 -27 149t-2 144l105 6l-56 166l-276 4l-27 -135l139 -18l5 -45q12 -162 12 -194v-50l-594 -29q-23 51 -29 234v61l135 33q83 454 211 961l43 170q90 22 324 -4l92 -9l399 -1128h119zM780 1870q40 0 60 74l6 24
q203 -16 252 -49q0 -65 -26 -144t-69 -126q-81 -86 -184 -86q-103 1 -187 69q-83 69 -128 68q-37 0 -53 -74q-6 -29 -11 -33q-12 -10 -262 41q0 8 -1 22q-4 54 17 135t87 146q67 63 218 65q85 0 215 -98q44 -34 66 -34z" />
    <glyph glyph-name="Adieresis" unicode="&#xc4;" horiz-adv-x="1435" 
d="M582 698l182 11l-102 266zM1376 293v-301l-573 -15q-15 9 -27 149t-2 144l105 6l-56 166l-276 4l-27 -135l139 -18l5 -45q12 -162 12 -194v-50l-594 -29q-23 51 -29 234v61l135 33q83 454 211 961l43 170q90 22 324 -4l92 -9l399 -1128h119zM362 1972q80 0 142 -59
t63 -142q0 -83 -44 -143t-140 -61q-96 0 -151 53q-54 53 -57 146q-3 94 52 150t135 56zM918 1567q-96 0 -151 53q-54 53 -57 146q-3 94 53 150t136 56t141 -59q62 -59 62 -142t-44 -143t-140 -61z" />
    <glyph glyph-name="Aring" unicode="&#xc5;" horiz-adv-x="1435" 
d="M582 698l182 11l-102 266zM1376 293v-301l-573 -15q-15 9 -27 149t-2 144l105 6l-56 166l-276 4l-27 -135l139 -18l5 -45q12 -162 12 -194v-50l-594 -29q-23 51 -29 234v61l135 33q83 454 211 961l43 170q90 22 324 -4l92 -9l399 -1128h119zM645 1702q80 0 80 90
q0 39 -20 69t-60 29q-86 0 -86 -98q-1 -42 27 -66t59 -24zM645 1530q-285 0 -285 280q0 137 79 202t202 65t198 -72t75 -193q0 -122 -68 -202t-201 -80z" />
    <glyph glyph-name="AE" unicode="&#xc6;" horiz-adv-x="1976" 
d="M729 717l199 -8v401zM1860 977q0 -4 -140 -6t-151 -1q-17 2 -23 77t-7 78t-115 5t-118 -2t-1 -118q2 -114 5 -116q3 -1 106 -5t105 -7q1 -3 3 -33t4 -70t3 -83q1 -42 2 -68t-1 -30q-32 0 -130 -7q-97 -7 -100 -11t-4 -267q19 -10 134 -1t114 12l58 217q0 9 166 -13
t167 -24q0 -10 -19 -263t-24 -255t-484 -8q-480 -6 -597 16q0 283 10 305q10 10 115 10l-4 133l-305 4l-47 -135l98 -18q16 -143 16 -207v-82l-614 -29q-23 51 -29 234v61l135 33q190 412 358 751q167 339 210 392q4 12 817 12l272 -2q19 -28 22 -82q11 -191 -7 -379v-18z
" />
    <glyph glyph-name="Ccedilla" unicode="&#xc7;" horiz-adv-x="1308" 
d="M53 717q0 186 52 327q51 140 139 222q170 158 405 159q70 1 130 -21t85 -44l27 -21l22 121l62 -6q191 -13 260 -57q11 -44 -4 -381l-6 -129l-330 -41q-21 86 -55 126q-72 85 -163 85t-147 -88t-57 -252q0 -164 78 -245t170 -81q59 0 132 39t118 100q87 -91 221 -211
l47 -43q-14 -36 -59 -92q-46 -55 -94 -94t-132 -74t-182 -41l-4 -79q15 -5 51 -27q113 -70 115 -184q0 -65 -38 -108q-65 -75 -200 -114q-69 -20 -104 -26q-2 -2 -18 44t-29 92q-12 46 -9 47t19 4q114 21 117 75q0 33 -35 55t-72 25l-35 4q5 162 5 217q-207 62 -345 248
t-137 469z" />
    <glyph glyph-name="Egrave" unicode="&#xc8;" horiz-adv-x="1325" 
d="M1286 504q0 -10 -19 -263t-21 -254t-562 5q-559 6 -564 1t-3 71q2 75 4 151t11 85t97 9h29l10 826l-137 -13l-27 324q4 12 818 12l272 -2q31 -47 26 -260q-2 -101 -12 -201v-18q0 -4 -140 -6t-154 -1q-14 0 -19 76q-6 76 -7 79t-115 5t-118 -2t-2 -118t5 -116q2 -1 56 -3
q156 -6 156 -10q0 -9 4 -75q4 -67 6 -110q1 -42 2 -68t-1 -30q-35 0 -131 -7t-100 -11t-3 -267q20 -10 134 -1t114 12l57 217q0 8 167 -14q167 -21 167 -23zM358 1722q-10 5 50 145q59 140 67 143t443 -152l145 -52q-74 -238 -107 -254q-6 -2 -290 80t-308 90z" />
    <glyph glyph-name="Eacute" unicode="&#xc9;" horiz-adv-x="1325" 
d="M1286 504q0 -10 -19 -263t-21 -254t-562 5q-559 6 -564 1t-3 71q2 75 4 151t11 85t97 9h29l10 826l-137 -13l-27 324q4 12 818 12l272 -2q31 -47 26 -260q-2 -101 -12 -201v-18q0 -4 -140 -6t-154 -1q-14 0 -19 76q-6 76 -7 79t-115 5t-118 -2t-2 -118t5 -116q2 -1 56 -3
q156 -6 156 -10q0 -9 4 -75q4 -67 6 -110q1 -42 2 -68t-1 -30q-35 0 -131 -7t-100 -11t-3 -267q20 -10 134 -1t114 12l57 217q0 8 167 -14q167 -21 167 -23zM1038 1745q-586 -195 -599 -188t-44 69t-53 119l-23 59l594 238q17 -4 74 -150q56 -145 51 -147z" />
    <glyph glyph-name="Ecircumflex" unicode="&#xca;" horiz-adv-x="1325" 
d="M1286 504q0 -10 -19 -263t-21 -254t-562 5q-559 6 -564 1t-3 71q2 75 4 151t11 85t97 9h29l10 826l-137 -13l-27 324q4 12 818 12l272 -2q31 -47 26 -260q-2 -101 -12 -201v-18q0 -4 -140 -6t-154 -1q-14 0 -19 76q-6 76 -7 79t-115 5t-118 -2t-2 -118t5 -116q2 -1 56 -3
q156 -6 156 -10q0 -9 4 -75q4 -67 6 -110q1 -42 2 -68t-1 -30q-35 0 -131 -7t-100 -11t-3 -267q20 -10 134 -1t114 12l57 217q0 8 167 -14q167 -21 167 -23zM442 1561q-30 5 -120 154q-20 34 -35 59l-15 22q-12 0 182 143t201 146q8 3 328 -211l107 -72q-141 -211 -175 -227
l-237 160z" />
    <glyph glyph-name="Edieresis" unicode="&#xcb;" horiz-adv-x="1325" 
d="M1286 504q0 -10 -19 -263t-21 -254t-562 5q-559 6 -564 1t-3 71q2 75 4 151t11 85t97 9h29l10 826l-137 -13l-27 324q4 12 818 12l272 -2q31 -47 26 -260q-2 -101 -12 -201v-18q0 -4 -140 -6t-154 -1q-14 0 -19 76q-6 76 -7 79t-115 5t-118 -2t-2 -118t5 -116q2 -1 56 -3
q156 -6 156 -10q0 -9 4 -75q4 -67 6 -110q1 -42 2 -68t-1 -30q-35 0 -131 -7t-100 -11t-3 -267q20 -10 134 -1t114 12l57 217q0 8 167 -14q167 -21 167 -23zM610 1771q0 -83 -44 -143t-140 -61q-96 0 -151 53q-54 53 -57 146q-3 94 52 150q56 56 136 56t142 -59t62 -142z
M961 1567q-96 0 -151 53q-54 53 -57 146q-3 94 53 150t136 56t141 -59t61 -142t-43 -143q-44 -60 -140 -61z" />
    <glyph glyph-name="Igrave" unicode="&#xcc;" horiz-adv-x="899" 
d="M213 283h35l-29 847q-119 -4 -129 7q-7 27 4 223l4 76l674 10l14 -291l-184 -35l27 -827q178 0 178 -14q0 -25 6 -146t-2 -129q-16 -6 -348 -8t-359 18q-14 27 -13 141t9 121q7 7 113 7zM727 1552q-6 -2 -291 80t-307 90q-10 5 50 145q59 140 67 143t442 -152l146 -52
q-74 -238 -107 -254z" />
    <glyph glyph-name="Iacute" unicode="&#xcd;" horiz-adv-x="899" 
d="M213 283h35l-29 847q-119 -4 -129 7q-7 27 4 223l4 76l674 10l14 -291l-184 -35l27 -827q178 0 178 -14q0 -25 6 -146t-2 -129q-16 -6 -348 -8t-359 18q-14 27 -13 141t9 121q7 7 113 7zM809 1745q-586 -195 -599 -188t-44 69t-53 119l-23 59l594 238q19 -5 74 -150
t51 -147z" />
    <glyph glyph-name="Icircumflex" unicode="&#xce;" horiz-adv-x="899" 
d="M213 283h35l-29 847q-119 -4 -129 7q-7 27 4 223l4 76l674 10l14 -291l-184 -35l27 -827q178 0 178 -14q0 -25 6 -146t-2 -129q-16 -6 -348 -8t-359 18q-14 27 -13 141t9 121q7 7 113 7zM213 1561q-31 5 -121 154q-20 34 -35 59l-14 22q-12 0 182 143t201 146
q8 3 328 -211l106 -72q-141 -211 -174 -227l-237 160z" />
    <glyph glyph-name="Idieresis" unicode="&#xcf;" horiz-adv-x="899" 
d="M213 283h35l-29 847q-119 -4 -129 7q-7 27 4 223l4 76l674 10l14 -291l-184 -35l27 -827q178 0 178 -14q0 -25 6 -146t-2 -129q-16 -6 -348 -8t-359 18q-14 27 -13 141t9 121q7 7 113 7zM197 1567q-96 0 -151 53q-54 53 -57 146q-3 94 52 150t135 56t142 -59t62 -142
t-43 -143q-44 -60 -140 -61zM915 1771q0 -83 -44 -143t-140 -61q-96 0 -150 53q-53 53 -57 146q-4 94 52 150t137 56q80 0 141 -59t61 -142z" />
    <glyph glyph-name="Eth" unicode="&#xd0;" horiz-adv-x="1382" 
d="M930 688q0 113 -22 191q-22 79 -54 111q-75 75 -152 66q-37 -5 -55 -5h-22q-10 -164 -15 -269q188 -4 189 -6q0 -6 -7 -69q-8 -63 -10 -67t-176 -7q-4 -235 4 -303q143 -18 232 59q88 78 88 299zM1348 710q0 -332 -103 -497q-103 -164 -254 -212q-150 -48 -337 -48
q-186 -1 -376 19t-194 18l-2 35q-2 33 -6 81q-18 212 -8 226q16 10 125 16l36 4l9 275q-166 0 -172 3t0 80t12 81q70 -2 166 -3l8 271q-158 -15 -163 -15t-29 171q-23 171 -15 177q32 22 192 38q159 16 345 12t276 -21q490 -90 490 -711z" />
    <glyph glyph-name="Ntilde" unicode="&#xd1;" horiz-adv-x="1468" 
d="M784 1147q-2 0 -16 131t-4 154q12 4 333 6t320 -2l2 -31q2 -31 3 -71t4 -109t-7 -68q-10 0 -73 -7t-64 -9l4 -121q2 -123 6 -288q17 -712 11 -746q-2 0 -158 -12t-162 -1l-434 729q0 -399 7 -407t43 -13q36 -6 70 -10q33 -4 33 -8t13 -115t4 -135q-5 -5 -103 -9
q-98 -3 -229 -9t-186 -7t-90 -1t-33 2q4 6 -7 131t-10 127q4 2 69 11t69 12t0 313t-13 483q-22 -2 -74 -2t-57 4q-4 4 -16 179q-12 174 -7 178t112 4l202 -3q45 0 78 -2h33l504 -714q8 28 -5 315l-4 111q-166 10 -168 10zM872 1870q40 0 60 74l6 24q203 -16 252 -49
q0 -110 -58 -215q-77 -141 -229 -141q-96 1 -179 69t-128 68q-37 0 -53 -74q-6 -29 -11 -33q-12 -10 -262 41q0 8 -1 22q-7 96 45 202q73 142 261 145q101 1 231 -99q44 -34 66 -34z" />
    <glyph glyph-name="Ograve" unicode="&#xd2;" horiz-adv-x="1488" 
d="M760 373q108 0 175 81t67 255t-60 276q-59 102 -182 102q-274 0 -275 -376q0 -166 83 -252q84 -86 192 -86zM61 731q0 561 431 697q123 40 272 40q297 0 481 -198q185 -198 185 -523q0 -326 -158 -547q-78 -110 -208 -173t-298 -64q-326 1 -516 189t-189 579zM455 1722
q-11 5 49 145q59 140 66 142t446 -151l143 -52q-74 -238 -106 -254q-7 -2 -291 80t-307 90z" />
    <glyph glyph-name="Oacute" unicode="&#xd3;" horiz-adv-x="1488" 
d="M760 373q108 0 175 81t67 255t-60 276q-59 102 -182 102q-274 0 -275 -376q0 -166 83 -252q84 -86 192 -86zM61 731q0 561 431 697q123 40 272 40q297 0 481 -198q185 -198 185 -523q0 -326 -158 -547q-78 -110 -208 -173t-298 -64q-326 1 -516 189t-189 579zM1135 1745
q-586 -195 -599 -188t-44 69t-54 119l-22 59l594 238q19 -5 74 -150t51 -147z" />
    <glyph glyph-name="Ocircumflex" unicode="&#xd4;" horiz-adv-x="1488" 
d="M760 373q108 0 175 81t67 255t-60 276q-59 102 -182 102q-274 0 -275 -376q0 -166 83 -252q84 -86 192 -86zM61 731q0 561 431 697q123 40 272 40q297 0 481 -198q185 -198 185 -523q0 -326 -158 -547q-78 -110 -208 -173t-298 -64q-326 1 -516 189t-189 579zM539 1561
q-31 5 -121 154q-20 34 -35 59l-14 22q-9 0 86 72q96 72 191 142q95 71 104 75t329 -211l107 -72q-141 -211 -174 -227l-238 160z" />
    <glyph glyph-name="Otilde" unicode="&#xd5;" horiz-adv-x="1488" 
d="M760 373q108 0 175 81t67 255t-60 276q-59 102 -182 102q-274 0 -275 -376q0 -166 83 -252q84 -86 192 -86zM61 731q0 561 431 697q123 40 272 40q297 0 481 -198q185 -198 185 -523q0 -326 -158 -547q-78 -110 -208 -173t-298 -64q-326 1 -516 189t-189 579zM919 1870
q39 0 60 74l6 24q203 -16 252 -49q1 -110 -57 -215q-77 -141 -230 -141q-96 1 -179 69t-128 68q-37 0 -53 -74q-6 -29 -10 -33q-13 -10 -263 41q0 8 -1 22q-7 96 45 202q73 142 262 145q103 1 231 -99q43 -34 65 -34z" />
    <glyph glyph-name="Odieresis" unicode="&#xd6;" horiz-adv-x="1488" 
d="M760 373q108 0 175 81t67 255t-60 276q-59 102 -182 102q-274 0 -275 -376q0 -166 83 -252q84 -86 192 -86zM61 731q0 561 431 697q123 40 272 40q297 0 481 -198q185 -198 185 -523q0 -326 -158 -547q-78 -110 -208 -173t-298 -64q-326 1 -516 189t-189 579zM522 1567
q-96 0 -150 53t-58 146q-4 94 52 150t136 56t142 -59t62 -142t-43 -144q-45 -60 -141 -60zM1038 1972q80 0 142 -59t61 -142q0 -83 -44 -143t-140 -61q-96 0 -151 53q-54 53 -57 146q-3 94 53 150t136 56z" />
    <glyph glyph-name="multiply" unicode="&#xd7;" horiz-adv-x="1273" 
d="M308 240q-7 0 -82 70q-76 70 -70 79q6 10 162 186t157 187q0 2 -147 140t-148 149t64 88q65 76 67 73l328 -319l336 336l143 -174l-307 -307l319 -320q-127 -129 -138 -129t-170 130t-164 132q-5 3 -174 -159t-176 -162z" />
    <glyph glyph-name="Oslash" unicode="&#xd8;" horiz-adv-x="1488" 
d="M762 373q106 0 173 81t66 259q0 100 -22 186l-297 -514q39 -12 80 -12zM545 487l319 574q-49 27 -104 26q-274 0 -275 -376q1 -138 60 -224zM770 1468q156 0 289 -61l63 106q14 4 56 -15t74 -41q34 -22 34 -23l-76 -131q219 -199 220 -576q0 -306 -158 -527
q-78 -110 -208 -173t-296 -63t-301 48l-76 -133l-112 43q-31 15 -30 21t77 143q-264 188 -265 645q0 197 55 343q54 146 153 231q192 163 501 163z" />
    <glyph glyph-name="Ugrave" unicode="&#xd9;" horiz-adv-x="1505" 
d="M592 528q0 -56 43 -104q43 -47 130 -47t130 42t43 113l-2 594h-121l-4 306q59 20 479 14l135 -4q12 -283 13 -287l-119 -35q2 -510 2 -600q0 -258 -143 -402q-142 -144 -410 -144t-416 150q-147 151 -147 419l-4 571l-150 23l-12 280l649 21q2 -8 8 -152t0 -153l-110 -17
q6 -532 6 -588zM451 1722q-11 5 49 145q59 140 66 142t446 -151l143 -52q-74 -238 -106 -254q-7 -2 -291 80t-307 90z" />
    <glyph glyph-name="Uacute" unicode="&#xda;" horiz-adv-x="1505" 
d="M592 528q0 -56 43 -104q43 -47 130 -47t130 42t43 113l-2 594h-121l-4 306q59 20 479 14l135 -4q12 -283 13 -287l-119 -35q2 -510 2 -600q0 -258 -143 -402q-142 -144 -410 -144t-416 150q-147 151 -147 419l-4 571l-150 23l-12 280l649 21q2 -8 8 -152t0 -153l-110 -17
q6 -532 6 -588zM1130 1745q-586 -195 -599 -188t-44 69t-53 119l-22 59l594 238q19 -5 74 -150t50 -147z" />
    <glyph glyph-name="Ucircumflex" unicode="&#xdb;" horiz-adv-x="1505" 
d="M592 528q0 -56 43 -104q43 -47 130 -47t130 42t43 113l-2 594h-121l-4 306q59 20 479 14l135 -4q12 -283 13 -287l-119 -35q2 -510 2 -600q0 -258 -143 -402q-142 -144 -410 -144t-416 150q-147 151 -147 419l-4 571l-150 23l-12 280l649 21q2 -8 8 -152t0 -153l-110 -17
q6 -532 6 -588zM535 1561q-31 5 -121 154q-20 34 -35 59l-14 22q-9 0 86 72q96 72 191 143q95 72 105 74q9 3 328 -211l107 -72q-141 -211 -174 -227l-238 160z" />
    <glyph glyph-name="Udieresis" unicode="&#xdc;" horiz-adv-x="1505" 
d="M592 528q0 -56 43 -104q43 -47 130 -47t130 42t43 113l-2 594h-121l-4 306q59 20 479 14l135 -4q12 -283 13 -287l-119 -35q2 -510 2 -600q0 -258 -143 -402q-142 -144 -410 -144t-416 150q-147 151 -147 419l-4 571l-150 23l-12 280l649 21q2 -8 8 -152t0 -153l-110 -17
q6 -532 6 -588zM702 1771q0 -83 -44 -143t-140 -61q-96 0 -150 53t-58 146q-4 94 52 150t136 56t142 -59t62 -142zM1034 1972q80 0 142 -59t61 -142q0 -83 -44 -143t-140 -61q-96 0 -151 53q-54 53 -57 146q-3 94 53 150t136 56z" />
    <glyph glyph-name="Yacute" unicode="&#xdd;" horiz-adv-x="1437" 
d="M978 283q60 0 66 -6q4 -6 5 -273q1 -6 -317 -13t-322 -5t-7 141q-2 139 0 141q27 0 83 10q57 10 57 11v395q0 4 -77 108t-155 205q-78 100 -80 99q-2 -2 -80 8q-77 10 -77 12q0 309 2 320l602 -11l22 -280q-2 -4 -98 -4l35 -39q35 -41 72 -82l34 -41q8 10 37 42t64 80
q36 48 35 50q-2 2 -82 2q-6 2 -4 142q2 141 4 143t276 -3q275 -5 285 -9t19 -140q9 -135 4 -140t-124 -5l-346 -463q7 -362 7 -378t60 -17zM1087 1745q-586 -195 -599 -188t-44 69t-53 119l-22 59l594 238q19 -5 74 -150t50 -147z" />
    <glyph glyph-name="Thorn" unicode="&#xde;" horiz-adv-x="1234" 
d="M801 758q0 66 -51 95q-51 28 -103 24l-51 -5l8 -254q0 -6 49 -1t99 40q49 35 49 101zM201 303h30q-18 795 -24 797l-139 -4l-9 336q15 4 103 10t220 3t202 -26q10 -49 10 -198q323 0 463 -127q53 -48 86 -134t31 -202t-44 -210q-42 -92 -101 -146q-60 -54 -167 -99
t-260 -45q0 -4 5 -94t3 -160q0 -14 -393 -8l-131 4q-2 0 -6 71q-12 210 6 221q19 11 115 11z" />
    <glyph glyph-name="germandbls" unicode="&#xdf;" horiz-adv-x="1363" 
d="M68 -6v1v-1zM705 1489q254 0 399 -131t145 -332q1 -64 -21 -118t-48 -83q-70 -76 -70 -109q0 -32 31 -64t67 -62t68 -94q31 -64 31 -140q1 -76 -49 -150t-120 -125q-140 -103 -259 -155l-50 -20q-113 184 -145 321q88 29 131 90q16 25 16 57t-37 81q-38 49 -76 109
t-38 128t36 130t72 114t35 91q0 40 -37 70q-37 29 -91 29t-99 -44t-45 -97l6 -870q0 -97 -2 -101t-125 -7t-239 -5t-123 -7q1 7 -12 135t-9 134t32 14t52 17l27 6v4q-33 623 -6 774t145 272q61 62 167 100t241 38z" />
    <glyph glyph-name="agrave" unicode="&#xe0;" 
d="M572 328q66 0 112 52q45 52 45 136t-44 142q-45 58 -115 58t-116 -50t-46 -140t49 -144t115 -54zM1274 -2q-35 0 -250 5t-215 9l-21 105q-4 -5 -10 -15t-32 -32q-101 -87 -254 -88q-153 0 -290 113q-71 58 -114 171t-43 257q0 382 298 484q156 53 314 0q76 -26 113 -53
l37 -24v102q272 10 434 4q0 -4 3 -72t5 -135l4 -65q-5 0 -77 -16t-74 -19l4 -432q170 0 173 -11q3 -12 2 -150t-7 -138zM362 1356q-9 4 50 145q59 140 67 142t443 -152l145 -51q-74 -238 -106 -254q-6 -2 -291 80t-308 90z" />
    <glyph glyph-name="aacute" unicode="&#xe1;" 
d="M572 328q66 0 112 52q45 52 45 136t-44 142q-45 58 -115 58t-116 -50t-46 -140t49 -144t115 -54zM1274 -2q-35 0 -250 5t-215 9l-21 105q-4 -5 -10 -15t-32 -32q-101 -87 -254 -88q-153 0 -290 113q-71 58 -114 171t-43 257q0 382 298 484q156 53 314 0q76 -26 113 -53
l37 -24v102q272 10 434 4q0 -4 3 -72t5 -135l4 -65q-5 0 -77 -16t-74 -19l4 -432q170 0 173 -11q3 -12 2 -150t-7 -138zM1067 1356q-586 -195 -599 -188q-13 6 -44 68t-53 120l-23 59l594 238q19 -5 74 -150t51 -147z" />
    <glyph glyph-name="acircumflex" unicode="&#xe2;" 
d="M572 328q66 0 112 52q45 52 45 136t-44 142q-45 58 -115 58t-116 -50t-46 -140t49 -144t115 -54zM1274 -2q-35 0 -250 5t-215 9l-21 105q-4 -5 -10 -15t-32 -32q-101 -87 -254 -88q-153 0 -290 113q-71 58 -114 171t-43 257q0 382 298 484q156 53 314 0q76 -26 113 -53
l37 -24v102q272 10 434 4q0 -4 3 -72t5 -135l4 -65q-5 0 -77 -16t-74 -19l4 -432q170 0 173 -11q3 -12 2 -150t-7 -138zM471 1159q-33 6 -121 155q-20 34 -35 58l-14 23q-12 0 182 143t202 146q8 2 327 -211l106 -72q-141 -211 -174 -227l-237 159z" />
    <glyph glyph-name="atilde" unicode="&#xe3;" 
d="M572 328q66 0 112 52q45 52 45 136t-44 142q-45 58 -115 58t-116 -50t-46 -140t49 -144t115 -54zM1274 -2q-35 0 -250 5t-215 9l-21 105q-4 -5 -10 -15t-32 -32q-101 -87 -254 -88q-153 0 -290 113q-71 58 -114 171t-43 257q0 382 298 484q156 53 314 0q76 -26 113 -53
l37 -24v102q272 10 434 4q0 -4 3 -72t5 -135l4 -65q-5 0 -77 -16t-74 -19l4 -432q170 0 173 -11q3 -12 2 -150t-7 -138zM552 1593q109 0 234 -99q43 -34 65 -34t38 25t22 49l7 25q203 -16 251 -50q0 -113 -57 -215q-78 -138 -229 -141q-95 0 -180 69q-84 69 -128 68
q-37 0 -53 -74q-6 -28 -10 -32q-12 -10 -262 41q0 8 -1 21q-8 99 45 202q75 145 258 145z" />
    <glyph glyph-name="adieresis" unicode="&#xe4;" 
d="M572 328q66 0 112 52q45 52 45 136t-44 142q-45 58 -115 58t-116 -50t-46 -140t49 -144t115 -54zM1274 -2q-35 0 -250 5t-215 9l-21 105q-4 -5 -10 -15t-32 -32q-101 -87 -254 -88q-153 0 -290 113q-71 58 -114 171t-43 257q0 382 298 484q156 53 314 0q76 -26 113 -53
l37 -24v102q272 10 434 4q0 -4 3 -72t5 -135l4 -65q-5 0 -77 -16t-74 -19l4 -432q170 0 173 -11q3 -12 2 -150t-7 -138zM639 1363q0 -83 -44 -143t-140 -61q-96 0 -151 53q-54 52 -57 146t52 150t135 56t142 -58q62 -60 63 -143zM989 1159q-96 0 -150 53q-53 52 -57 146
t52 150t137 56q80 0 141 -58q62 -60 62 -143t-44 -143t-141 -61z" />
    <glyph glyph-name="aring" unicode="&#xe5;" 
d="M572 328q66 0 112 52q45 52 45 136t-44 142q-45 58 -115 58t-116 -50t-46 -140t49 -144t115 -54zM1274 -2q-35 0 -250 5t-215 9l-21 105q-4 -5 -10 -15t-32 -32q-101 -87 -254 -88q-153 0 -290 113q-71 58 -114 171t-43 257q0 382 298 484q156 53 314 0q76 -26 113 -53
l37 -24v102q272 10 434 4q0 -4 3 -72t5 -135l4 -65q-5 0 -77 -16t-74 -19l4 -432q170 0 173 -11q3 -12 2 -150t-7 -138zM717 1313q80 0 80 90q-1 39 -21 69t-59 29q-86 0 -86 -98q0 -41 27 -66q28 -24 59 -24zM717 1141q-285 0 -285 280q0 137 79 202t202 65t197 -72
t75 -193t-67 -201t-201 -81z" />
    <glyph glyph-name="ae" unicode="&#xe6;" horiz-adv-x="1685" 
d="M420 313q8 -49 79 -46t126 50q8 74 0 121q-81 0 -147 -34t-58 -91zM1024 584l250 153q-6 17 -33 35t-55 19q-100 -1 -146 -69t-16 -138zM39 301q0 295 371 341q88 11 180 3q4 39 -32 69q-60 50 -223 16q-62 -13 -99 -25l-37 -15q-44 98 -84 228l-13 47q14 10 41 26
t121 44t204 28t207 -41t140 -98q133 145 367 145q168 0 306 -110t144 -189l-55 -209l-395 -217q31 -37 362 -37q-4 -131 -35 -278l-10 -52q-420 -31 -637 150q-69 -64 -206 -109t-242 -45q-188 0 -282 89q-93 89 -93 239z" />
    <glyph glyph-name="ccedilla" unicode="&#xe7;" horiz-adv-x="1136" 
d="M610 344q94 0 156 82q37 -8 110 -64t128 -108l55 -53q-14 -29 -51 -69t-77 -69t-110 -55t-149 -33l-4 -79q15 -5 51 -27q113 -70 114 -184q1 -113 -141 -184q-109 -49 -200 -64q-2 -2 -34 88t-22 96q30 -1 70 17t53 31q12 13 12 38q1 25 -35 47t-71 25l-35 4q4 158 4 217
q-174 47 -277 184t-104 346q0 136 44 242t117 166q148 122 325 123q70 -1 126 -17t76 -32l23 -15l18 105h21q196 -20 258 -62q12 -35 -4 -307l-4 -106l-330 -45q0 14 -16 60q-16 45 -50 66q-35 21 -67 19q-58 -2 -102 -51q-44 -48 -44 -142t52 -142t114 -48z" />
    <glyph glyph-name="egrave" unicode="&#xe8;" horiz-adv-x="1062" 
d="M401 584l250 153q-6 17 -33 35t-55 19q-101 -1 -147 -69t-15 -138zM35 536q0 272 149 403q150 130 375 130q168 0 306 -110t145 -189l-56 -209l-395 -217q31 -37 363 -37q-4 -113 -35 -278l-10 -52q-387 -29 -615 129q-227 158 -227 430zM184 1356q-9 4 50 145
q59 140 66 142t445 -152l144 -51q-74 -238 -107 -254q-6 -2 -290 80t-308 90z" />
    <glyph glyph-name="eacute" unicode="&#xe9;" horiz-adv-x="1062" 
d="M401 584l250 153q-6 17 -33 35t-55 19q-101 -1 -147 -69t-15 -138zM35 536q0 272 149 403q150 130 375 130q168 0 306 -110t145 -189l-56 -209l-395 -217q31 -37 363 -37q-4 -113 -35 -278l-10 -52q-387 -29 -615 129q-227 158 -227 430zM889 1356q-586 -195 -599 -188
q-13 6 -44 68t-53 120l-23 59l594 238q19 -5 74 -150t51 -147z" />
    <glyph glyph-name="ecircumflex" unicode="&#xea;" horiz-adv-x="1062" 
d="M401 584l250 153q-6 17 -33 35t-55 19q-101 -1 -147 -69t-15 -138zM35 536q0 272 149 403q150 130 375 130q168 0 306 -110t145 -189l-56 -209l-395 -217q31 -37 363 -37q-4 -113 -35 -278l-10 -52q-387 -29 -615 129q-227 158 -227 430zM293 1159q-33 6 -121 155
q-20 34 -35 58l-14 23q-9 0 182 143t200 146q9 2 329 -211l106 -72q-141 -211 -174 -227l-238 159z" />
    <glyph glyph-name="edieresis" unicode="&#xeb;" horiz-adv-x="1062" 
d="M401 584l250 153q-6 17 -33 35t-55 19q-101 -1 -147 -69t-15 -138zM35 536q0 272 149 403q150 130 375 130q168 0 306 -110t145 -189l-56 -209l-395 -217q31 -37 363 -37q-4 -113 -35 -278l-10 -52q-387 -29 -615 129q-227 158 -227 430zM277 1159q-96 0 -151 53
q-54 52 -57 146t52 150t135 56t142 -58q62 -60 62 -143t-43 -143q-44 -60 -140 -61zM995 1363q0 -83 -44 -143t-140 -61q-96 0 -151 53q-54 52 -57 146t53 150t136 56t142 -58q61 -60 61 -143z" />
    <glyph glyph-name="igrave" unicode="&#xec;" horiz-adv-x="872" 
d="M622 -2h-252l-238 2h-38q-14 98 -14 262l176 8l2 457q0 2 -27 1t-55 -2t-55 -3l-27 -2l-33 278q0 5 113 11q332 16 459 -13v-721l168 -26l4 -246q-7 -6 -183 -6zM86 1356q-9 4 50 145q59 140 66 142t445 -152l144 -51q-74 -238 -107 -254q-6 -2 -290 80t-308 90z" />
    <glyph glyph-name="iacute" unicode="&#xed;" horiz-adv-x="872" 
d="M622 -2h-252l-238 2h-38q-14 98 -14 262l176 8l2 457q0 2 -27 1t-55 -2t-55 -3l-27 -2l-33 278q0 5 113 11q332 16 459 -13v-721l168 -26l4 -246q-7 -6 -183 -6zM791 1356q-586 -195 -599 -188q-12 6 -44 68t-54 120l-22 59l594 238q19 -5 74 -150t51 -147z" />
    <glyph glyph-name="icircumflex" unicode="&#xee;" horiz-adv-x="872" 
d="M622 -2h-252l-238 2h-38q-14 98 -14 262l176 8l2 457q0 2 -27 1t-55 -2t-55 -3l-27 -2l-33 278q0 5 113 11q332 16 459 -13v-721l168 -26l4 -246q-7 -6 -183 -6zM195 1159q-33 6 -121 155q-20 34 -35 58l-14 23q-8 -1 87 71q285 215 295 218q10 2 328 -211l107 -72
q-141 -211 -174 -227l-238 159z" />
    <glyph glyph-name="idieresis" unicode="&#xef;" horiz-adv-x="872" 
d="M622 -2h-252l-238 2h-38q-14 98 -14 262l176 8l2 457q0 2 -27 1t-55 -2t-55 -3l-27 -2l-33 278q0 5 113 11q332 16 459 -13v-721l168 -26l4 -246q-7 -6 -183 -6zM362 1363q0 -83 -44 -143t-140 -61q-96 0 -150 53q-54 52 -58 146t52 150t136 56t142 -58q62 -60 62 -143z
M897 1363q0 -83 -44 -143t-140 -61q-96 0 -151 53q-54 52 -57 146t53 150t136 56t142 -58q62 -60 61 -143z" />
    <glyph glyph-name="eth" unicode="&#xf0;" horiz-adv-x="1087" 
d="M408 444q0 -48 28 -74t62 -26q74 0 116 55t38 120q-3 65 -23 112q-74 0 -148 -49q-73 -50 -73 -138zM1038 584q0 -154 -47 -275t-124 -191q-157 -141 -351 -141q-195 0 -326 120t-131 343q0 305 300 451q77 37 161 55q-23 57 -82 123q-197 -117 -204 -118q-15 -2 -55 88
q-39 91 -38 96q57 33 135 77q-53 40 -67 52q18 36 71 89t90 81t60 47t49 35q55 -43 131 -115q223 125 226 123l75 -166q0 -6 -166 -105q293 -342 293 -669z" />
    <glyph glyph-name="ntilde" unicode="&#xf1;" 
d="M795 1075q420 0 419 -524l-2 -268l86 -19q14 -201 0 -266l-530 6l-10 260l100 19l-2 219q0 207 -156 207q-61 -1 -107 -59t-46 -148l2 -226l123 -26l4 -246q-6 -6 -152 -6h-209l-196 2h-31q-14 98 -14 262l135 8l2 490q-8 2 -33 0t-57 -4l-33 -2l-33 286q0 11 305 41
l101 13l65 -148q10 14 30 36t91 58q70 36 148 35zM522 1593q107 0 236 -99q42 -34 64 -34q39 0 61 74l6 25q203 -16 252 -50q0 -112 -58 -215q-78 -138 -229 -141q-94 0 -179 69q-84 69 -128 68q-37 0 -53 -73q-6 -29 -11 -33q-12 -10 -262 41q0 8 -1 21q-8 99 45 202
q74 145 257 145z" />
    <glyph glyph-name="ograve" unicode="&#xf2;" horiz-adv-x="1124" 
d="M414 505q0 -89 52 -143t114 -53q62 0 102 49q39 48 39 140t-36 153q-35 61 -113 61t-118 -58q-40 -60 -40 -149zM41 513q0 282 146 410q147 128 377 128q230 1 370 -143t139 -386q0 -242 -127 -402q-127 -161 -373 -161t-389 136t-143 418zM233 1356q-9 4 50 145
q59 140 66 142t446 -152l143 -51q-74 -238 -107 -254q-7 -2 -291 80t-307 90z" />
    <glyph glyph-name="oacute" unicode="&#xf3;" horiz-adv-x="1124" 
d="M414 505q0 -89 52 -143t114 -53q62 0 102 49q39 48 39 140t-36 153q-35 61 -113 61t-118 -58q-40 -60 -40 -149zM41 513q0 282 146 410q147 128 377 128q230 1 370 -143t139 -386q0 -242 -127 -402q-127 -161 -373 -161t-389 136t-143 418zM938 1356q-586 -195 -599 -188
q-13 6 -44 68t-53 120l-23 59l594 238q19 -5 74 -150t51 -147z" />
    <glyph glyph-name="ocircumflex" unicode="&#xf4;" horiz-adv-x="1124" 
d="M414 505q0 -89 52 -143t114 -53q62 0 102 49q39 48 39 140t-36 153q-35 61 -113 61t-118 -58q-40 -60 -40 -149zM41 513q0 282 146 410q147 128 377 128q230 1 370 -143t139 -386q0 -242 -127 -402q-127 -161 -373 -161t-389 136t-143 418zM342 1159q-33 6 -121 155
q-20 34 -35 58l-14 23q-12 0 182 143t202 146q8 2 327 -211l106 -72q-141 -211 -174 -227l-237 159z" />
    <glyph glyph-name="otilde" unicode="&#xf5;" horiz-adv-x="1124" 
d="M414 505q0 -89 52 -143t114 -53q62 0 102 49q39 48 39 140t-36 153q-35 61 -113 61t-118 -58q-40 -60 -40 -149zM41 513q0 282 146 410q147 128 377 128q230 1 370 -143t139 -386q0 -242 -127 -402q-127 -161 -373 -161t-389 136t-143 418zM422 1593q109 0 235 -99
q43 -34 65 -34t38 25t22 49l6 25q203 -16 252 -50q0 -113 -57 -215q-78 -138 -229 -141q-95 0 -180 69q-84 69 -128 68q-36 0 -52 -74q-6 -28 -11 -32q-12 -10 -262 41q0 8 -1 21q-8 99 45 202q74 145 257 145z" />
    <glyph glyph-name="odieresis" unicode="&#xf6;" horiz-adv-x="1124" 
d="M414 505q0 -89 52 -143t114 -53q62 0 102 49q39 48 39 140t-36 153q-35 61 -113 61t-118 -58q-40 -60 -40 -149zM41 513q0 282 146 410q147 128 377 128q230 1 370 -143t139 -386q0 -242 -127 -402q-127 -161 -373 -161t-389 136t-143 418zM326 1159q-96 0 -151 53
q-54 52 -57 146t52 150t135 56t142 -58q63 -60 63 -143t-44 -143t-140 -61zM1044 1363q0 -83 -44 -143t-140 -61q-96 0 -150 53q-54 52 -58 146t54 150q56 56 136 56t141 -58q61 -60 61 -143z" />
    <glyph glyph-name="divide" unicode="&#xf7;" horiz-adv-x="1124" 
d="M373 293q0 82 52 143q52 62 135 62q82 0 144 -44t62 -137q0 -203 -197 -208q-90 -2 -143 50t-53 134zM88 637q-14 1 -20 105t-5 104l957 4q10 0 22 -94t5 -99q-55 -27 -443 -33t-516 13zM576 975q-96 0 -151 53q-54 52 -57 146t52 150t135 56t142 -59q63 -59 63 -142
t-44 -143t-140 -61z" />
    <glyph glyph-name="oslash" unicode="&#xf8;" horiz-adv-x="1124" 
d="M561 279q76 0 124 59t48 172q0 63 -20 129l-205 -354q25 -6 53 -6zM588 725q-106 0 -154 -73t-49 -181q1 -49 21 -106l200 358q-6 2 -18 2zM41 516q0 279 146 407t384 128q104 0 197 -35q63 111 72 119q8 1 41 -15t61 -35l29 -16l-74 -129q176 -145 176 -428
q0 -231 -127 -392t-373 -161q-123 0 -223 35l-76 -131l-114 57q0 6 71 135q-190 137 -190 461z" />
    <glyph glyph-name="ugrave" unicode="&#xf9;" 
d="M1278 -4q0 -6 -289 -12h-96l-35 90q-49 -41 -128 -71t-161 -30q-166 0 -287 102q-139 115 -139 423l2 233l-86 8q-7 42 -18 150q-10 108 0 125l469 33q0 -137 2 -494q0 -207 145 -207q59 0 97 57q37 57 37 150l-3 145l-135 7l-16 290l508 39v-702q2 -2 64 -14
q61 -12 65 -13q4 0 4 -309zM297 1356q-4 2 48 143t69 143q6 3 442 -151l145 -51q-74 -238 -106 -254q-7 -2 -291 80t-307 90z" />
    <glyph glyph-name="uacute" unicode="&#xfa;" 
d="M1278 -4q0 -6 -289 -12h-96l-35 90q-49 -41 -128 -71t-161 -30q-166 0 -287 102q-139 115 -139 423l2 233l-86 8q-7 42 -18 150q-10 108 0 125l469 33q0 -137 2 -494q0 -207 145 -207q59 0 97 57q37 57 37 150l-3 145l-135 7l-16 290l508 39v-702q2 -2 64 -14
q61 -12 65 -13q4 0 4 -309zM1001 1356q-586 -195 -599 -188q-13 6 -44 68t-53 120l-22 59l594 238q19 -5 74 -150t50 -147z" />
    <glyph glyph-name="ucircumflex" unicode="&#xfb;" 
d="M1278 -4q0 -6 -289 -12h-96l-35 90q-49 -41 -128 -71t-161 -30q-166 0 -287 102q-139 115 -139 423l2 233l-86 8q-7 42 -18 150q-10 108 0 125l469 33q0 -137 2 -494q0 -207 145 -207q59 0 97 57q37 57 37 150l-3 145l-135 7l-16 290l508 39v-702q2 -2 64 -14
q61 -12 65 -13q4 0 4 -309zM406 1159q-33 6 -121 155q-20 34 -35 58l-14 23q-13 0 181 143t202 146q8 2 327 -211l107 -72q-141 -211 -174 -227l-238 159z" />
    <glyph glyph-name="udieresis" unicode="&#xfc;" 
d="M1278 -4q0 -6 -289 -12h-96l-35 90q-49 -41 -128 -71t-161 -30q-166 0 -287 102q-139 115 -139 423l2 233l-86 8q-7 42 -18 150q-10 108 0 125l469 33q0 -137 2 -494q0 -207 145 -207q59 0 97 57q37 57 37 150l-3 145l-135 7l-16 290l508 39v-702q2 -2 64 -14
q61 -12 65 -13q4 0 4 -309zM573 1363q0 -83 -44 -143t-140 -61q-96 0 -150 53q-53 52 -57 146t51 150t135 56t143 -58q62 -60 62 -143zM1108 1363q0 -83 -44 -143t-140 -61q-96 0 -151 53q-54 52 -57 146t53 150t136 56q79 0 141 -58q62 -60 62 -143z" />
    <glyph glyph-name="yacute" unicode="&#xfd;" horiz-adv-x="1419" 
d="M205 -352q-9 0 143 238t148 239q-287 471 -318 639l-112 6q-10 56 -20 153q-11 97 -1 113l612 2l11 -270l-115 -4l156 -289l147 283l-102 6l-4 266q11 11 529 -6l58 -2q2 -17 9 -111q6 -94 6 -151l-113 -6q-555 -1094 -680 -1280q-21 3 -89 23q-216 61 -265 151z
M1055 1356q-586 -195 -599 -188q-13 6 -44 68t-54 120l-22 59l594 238q19 -5 74 -150t51 -147z" />
    <glyph glyph-name="thorn" unicode="&#xfe;" 
d="M633 510q0 -94 38 -156t97 -63q143 0 143 215q0 98 -37 152q-36 54 -100 54t-102 -54t-39 -148zM1280 482q0 -136 -41 -244t-111 -163q-132 -102 -305 -102q-78 1 -137 17t-80 33l-20 16v-203q199 -23 206 -28q7 -4 8 -76t0 -131t1 -70h-740l-12 279l156 12l-2 1274
l-152 20l-14 283l126 18q386 53 394 45q2 -6 -2 -131t-8 -252l-4 -127q17 34 97 63q140 50 285 14t250 -164q105 -127 105 -383z" />
    <glyph glyph-name="ydieresis" unicode="&#xff;" horiz-adv-x="1419" 
d="M205 -352q-9 0 143 238t148 239q-287 471 -318 639l-112 6q-10 56 -20 153q-11 97 -1 113l612 2l11 -270l-115 -4l156 -289l147 283l-102 6l-4 266q11 11 529 -6l58 -2q2 -17 9 -111q6 -94 6 -151l-113 -6q-555 -1094 -680 -1280q-21 3 -89 23q-216 61 -265 151z
M442 1159q-96 0 -150 53q-54 52 -58 146t52 150t136 56t142 -58q62 -60 62 -143t-44 -143t-140 -61zM1161 1363q0 -83 -44 -143t-140 -61q-96 0 -151 53q-54 52 -57 146t53 150t136 56t142 -58q62 -60 61 -143z" />
    <glyph glyph-name="Amacron" unicode="&#x100;" horiz-adv-x="1435" 
d="M582 698l182 11l-102 266zM1376 293v-301l-573 -15q-15 9 -27 149t-2 144l105 6l-56 166l-276 4l-27 -135l139 -18l5 -45q12 -162 12 -194v-50l-594 -29q-23 51 -29 234v61l135 33q83 454 211 961l43 170q90 22 324 -4l92 -9l399 -1128h119zM983 1612l-696 -17
q-10 -1 -8 141t8 146q10 4 356 12t352 -2q4 -12 -2 -146t-10 -134z" />
    <glyph glyph-name="amacron" unicode="&#x101;" 
d="M572 328q66 0 112 52q45 52 45 136t-44 142q-45 58 -115 58t-116 -50t-46 -140t49 -144t115 -54zM1274 -2q-35 0 -250 5t-215 9l-21 105q-4 -5 -10 -15t-32 -32q-101 -87 -254 -88q-153 0 -290 113q-71 58 -114 171t-43 257q0 382 298 484q156 53 314 0q76 -26 113 -53
l37 -24v102q272 10 434 4q0 -4 3 -72t5 -135l4 -65q-5 0 -77 -16t-74 -19l4 -432q170 0 173 -11q3 -12 2 -150t-7 -138zM1055 1202l-697 -16q-10 0 -8 141t8 146q10 4 356 12t353 -2q4 -13 -2 -147t-10 -134z" />
    <glyph glyph-name="Abreve" unicode="&#x102;" horiz-adv-x="1435" 
d="M582 698l182 11l-102 266zM1376 293v-301l-573 -15q-15 9 -27 149t-2 144l105 6l-56 166l-276 4l-27 -135l139 -18l5 -45q12 -162 12 -194v-50l-594 -29q-23 51 -29 234v61l135 33q83 454 211 961l43 170q90 22 324 -4l92 -9l399 -1128h119zM629 1536q-324 0 -324 360
q100 20 211 0q0 -53 36 -91t90 -38t89 35t35 88q26 12 108 16t95 -5q0 -140 -75 -247q-38 -54 -106 -86t-159 -32z" />
    <glyph glyph-name="abreve" unicode="&#x103;" 
d="M572 328q66 0 112 52q45 52 45 136t-44 142q-45 58 -115 58t-116 -50t-46 -140t49 -144t115 -54zM1274 -2q-35 0 -250 5t-215 9l-21 105q-4 -5 -10 -15t-32 -32q-101 -87 -254 -88q-153 0 -290 113q-71 58 -114 171t-43 257q0 382 298 484q156 53 314 0q76 -26 113 -53
l37 -24v102q272 10 434 4q0 -4 3 -72t5 -135l4 -65q-5 0 -77 -16t-74 -19l4 -432q170 0 173 -11q3 -12 2 -150t-7 -138zM700 1147q-324 0 -323 360q100 20 211 0q0 -53 36 -91t90 -38t89 35t35 88q26 11 108 15t94 -5q0 -141 -74 -246q-38 -54 -107 -86t-159 -32z" />
    <glyph glyph-name="Aogonek" unicode="&#x104;" horiz-adv-x="1435" 
d="M582 698l182 11l-102 266zM1376 293v-301q-68 -2 -155 -6q-86 -121 -86 -224q1 -38 31 -66t61 -36l30 -8q7 -2 -19 -85t-30 -83q-58 -9 -188 34q-66 22 -113 80t-47 144q0 143 119 235q-168 -4 -179 3q-12 6 -24 146t-2 144l105 6l-56 166l-276 4l-27 -135l139 -18l5 -45
q12 -162 12 -194v-50l-594 -29q-23 51 -29 234v61l135 33q83 454 211 961l43 170q90 22 324 -4l92 -9l399 -1128h119z" />
    <glyph glyph-name="aogonek" unicode="&#x105;" 
d="M572 328q66 0 112 52q45 52 45 136t-44 142q-45 58 -115 58t-116 -50t-46 -140t49 -144t115 -54zM1274 -2q-39 0 -90 2q-96 -125 -97 -238q0 -38 31 -66t62 -36l30 -8q6 -2 -20 -85t-29 -83q-59 -10 -188 34q-66 22 -113 80t-47 136t33 138t63 87q31 27 64 45
q-164 4 -164 8l-21 105q-4 -5 -10 -15t-32 -32q-101 -87 -254 -88q-153 0 -290 113q-71 58 -114 171t-43 257q0 382 298 484q156 53 314 0q76 -26 113 -53l37 -24v102q272 10 434 4q0 -4 3 -72t5 -135l4 -65q-5 0 -77 -16t-74 -19l4 -432q170 0 173 -11q3 -12 2 -150
t-7 -138z" />
    <glyph glyph-name="Cacute" unicode="&#x106;" horiz-adv-x="1308" 
d="M53 721q0 182 52 323q51 140 139 222q170 158 405 159q70 1 130 -21t85 -44l27 -21l22 121l62 -6q191 -13 260 -57q11 -44 -4 -381l-6 -129l-330 -41q-21 86 -55 126q-72 85 -163 85t-147 -88t-57 -252q0 -164 78 -245t170 -81q59 0 132 39t118 100q87 -91 221 -211
l47 -43l-16 -32q-11 -20 -55 -72t-97 -93q-53 -40 -147 -73t-210 -33t-233 49q-261 108 -369 372q-60 146 -59 327zM1073 1745q-586 -195 -599 -188t-44 69t-53 119l-23 59l594 238q17 -4 74 -150q56 -145 51 -147z" />
    <glyph glyph-name="cacute" unicode="&#x107;" horiz-adv-x="1136" 
d="M610 344q94 0 156 82q37 -8 110 -64t128 -108l55 -53q-8 -21 -54 -70q-45 -49 -90 -79t-123 -54t-167 -25q-250 -1 -411 147t-161 410q0 136 44 242t117 166q148 122 325 123q70 -1 126 -17t76 -32l23 -15l18 105h21q196 -20 258 -62q12 -35 -4 -307l-4 -106l-330 -45
q0 14 -16 60q-16 45 -50 66q-35 21 -67 19q-58 -2 -102 -51q-44 -48 -44 -142t52 -142t114 -48zM981 1356q-586 -195 -599 -188q-13 6 -44 68t-53 120l-23 59l594 238q19 -5 74 -150t51 -147z" />
    <glyph glyph-name="Ccircumflex" unicode="&#x108;" horiz-adv-x="1308" 
d="M53 721q0 182 52 323q51 140 139 222q170 158 405 159q70 1 130 -21t85 -44l27 -21l22 121l62 -6q191 -13 260 -57q11 -44 -4 -381l-6 -129l-330 -41q-21 86 -55 126q-72 85 -163 85t-147 -88t-57 -252q0 -164 78 -245t170 -81q59 0 132 39t118 100q87 -91 221 -211
l47 -43l-16 -32q-11 -20 -55 -72t-97 -93q-53 -40 -147 -73t-210 -33t-233 49q-261 108 -369 372q-60 146 -59 327zM477 1561q-39 7 -155 213l-15 22q-12 0 182 143t201 146q8 3 328 -211l106 -72q-141 -211 -174 -227l-237 160z" />
    <glyph glyph-name="ccircumflex" unicode="&#x109;" horiz-adv-x="1136" 
d="M610 344q94 0 156 82q37 -8 110 -64t128 -108l55 -53q-8 -21 -54 -70q-45 -49 -90 -79t-123 -54t-167 -25q-250 -1 -411 147t-161 410q0 136 44 242t117 166q148 122 325 123q70 -1 126 -17t76 -32l23 -15l18 105h21q196 -20 258 -62q12 -35 -4 -307l-4 -106l-330 -45
q0 14 -16 60q-16 45 -50 66q-35 21 -67 19q-58 -2 -102 -51q-44 -48 -44 -142t52 -142t114 -48zM385 1159q-33 6 -121 155q-20 34 -35 58l-14 23q-12 0 182 143t202 146q8 2 327 -211l106 -72q-141 -211 -174 -227l-237 159z" />
    <glyph glyph-name="Cdotaccent" unicode="&#x10a;" horiz-adv-x="1308" 
d="M53 721q0 182 52 323q51 140 139 222q170 158 405 159q70 1 130 -21t85 -44l27 -21l22 121l62 -6q191 -13 260 -57q11 -44 -4 -381l-6 -129l-330 -41q-21 86 -55 126q-72 85 -163 85t-147 -88t-57 -252q0 -164 78 -245t170 -81q59 0 132 39t118 100q87 -91 221 -211
l47 -43l-16 -32q-11 -20 -55 -72t-97 -93q-53 -40 -147 -73t-210 -33t-233 49q-261 108 -369 372q-60 146 -59 327zM913 1771q0 -83 -44 -143t-140 -61q-96 0 -150 53q-53 53 -57 146q-4 94 51 150t135 56t143 -59q62 -59 62 -142z" />
    <glyph glyph-name="cdotaccent" unicode="&#x10b;" horiz-adv-x="1136" 
d="M610 344q94 0 156 82q37 -8 110 -64t128 -108l55 -53q-8 -21 -54 -70q-45 -49 -90 -79t-123 -54t-167 -25q-250 -1 -411 147t-161 410q0 136 44 242t117 166q148 122 325 123q70 -1 126 -17t76 -32l23 -15l18 105h21q196 -20 258 -62q12 -35 -4 -307l-4 -106l-330 -45
q0 14 -16 60q-16 45 -50 66q-35 21 -67 19q-58 -2 -102 -51q-44 -48 -44 -142t52 -142t114 -48zM821 1363q0 -83 -44 -143t-140 -61q-96 0 -151 53q-54 52 -57 146t52 150t135 56t142 -58q62 -60 63 -143z" />
    <glyph glyph-name="Ccaron" unicode="&#x10c;" horiz-adv-x="1308" 
d="M53 721q0 182 52 323q51 140 139 222q170 158 405 159q70 1 130 -21t85 -44l27 -21l22 121l62 -6q191 -13 260 -57q11 -44 -4 -381l-6 -129l-330 -41q-21 86 -55 126q-72 85 -163 85t-147 -88t-57 -252q0 -164 78 -245t170 -81q59 0 132 39t118 100q87 -91 221 -211
l47 -43l-16 -32q-11 -20 -55 -72t-97 -93q-53 -40 -147 -73t-210 -33t-233 49q-261 108 -369 372q-60 146 -59 327zM412 1776l-107 71q141 211 174 228l238 -160l235 174q33 -6 121 -155q20 -34 35 -58l14 -23q9 0 -180 -141q-188 -141 -200 -146q-13 -5 -330 210z" />
    <glyph glyph-name="ccaron" unicode="&#x10d;" horiz-adv-x="1136" 
d="M610 344q94 0 156 82q37 -8 110 -64t128 -108l55 -53q-8 -21 -54 -70q-45 -49 -90 -79t-123 -54t-167 -25q-250 -1 -411 147t-161 410q0 136 44 242t117 166q148 122 325 123q70 -1 126 -17t76 -32l23 -15l18 105h21q196 -20 258 -62q12 -35 -4 -307l-4 -106l-330 -45
q0 14 -16 60q-16 45 -50 66q-35 21 -67 19q-58 -2 -102 -51q-44 -48 -44 -142t52 -142t114 -48zM1030 1452q2 0 -72 -60t-190 -144q-115 -83 -121 -85t-328 211l-106 72q141 211 174 227l238 -160l235 175q33 -6 121 -155q20 -34 35 -58z" />
    <glyph glyph-name="Dcaron" unicode="&#x10e;" horiz-adv-x="1382" 
d="M930 688q0 113 -22 191q-22 79 -54 111q-75 75 -152 66q-37 -5 -55 -5h-22q-33 -569 -15 -721q143 -18 232 59q88 78 88 299zM1348 710q0 -332 -103 -497q-103 -164 -254 -212q-150 -48 -337 -48q-186 -1 -376 19t-194 18l-2 35q-2 33 -6 81q-18 212 -8 226q16 10 125 16
l36 4l23 707q-158 -15 -163 -15t-29 171q-23 171 -15 177q32 22 192 38q159 16 345 12t276 -21q490 -90 490 -711zM1022 1853q5 0 -178 -140t-204 -148q-12 -5 -329 211l-106 71q141 211 174 228l237 -160l236 174q33 -6 121 -155q20 -34 35 -58z" />
    <glyph glyph-name="dcaron" unicode="&#x10f;" horiz-adv-x="1619" 
d="M420 512q0 -98 37 -152t101 -55q64 0 102 54q38 53 38 149t-38 162t-97 65q-143 0 -143 -223zM43 509q0 531 449 538q78 1 138 -19t83 -39l22 -18v213q-150 23 -157 28q-9 21 4 193l4 63l493 2q29 0 37 -2l2 -1155l164 -10l2 -303l-48 -2q-50 -2 -119 -3t-188 -4t-126 3
l-25 74q-8 -15 -30 -32q-79 -59 -234 -59t-302 114q-75 58 -122 170t-47 248zM1407 1726q82 0 142 -60t73 -142q90 -561 -283 -633q-17 39 -43 133l-8 33q121 10 164 108q33 76 -6 119q-18 20 -49 21q-100 0 -143 52q-42 52 -45 152q-3 101 57 159t141 58z" />
    <glyph glyph-name="Dcroat" unicode="&#x110;" horiz-adv-x="1382" 
d="M930 688q0 113 -22 191q-22 79 -54 111q-75 75 -152 66q-37 -5 -55 -5h-22q-10 -164 -15 -269q188 -4 189 -6q0 -6 -7 -69q-8 -63 -10 -67t-176 -7q-4 -235 4 -303q143 -18 232 59q88 78 88 299zM1348 710q0 -332 -103 -497q-103 -164 -254 -212q-150 -48 -337 -48
q-186 -1 -376 19t-194 18l-2 35q-2 33 -6 81q-18 212 -8 226q16 10 125 16l36 4l9 275q-166 0 -172 3t0 80t12 81q70 -2 166 -3l8 271q-158 -15 -163 -15t-29 171q-23 171 -15 177q32 22 192 38q159 16 345 12t276 -21q490 -90 490 -711z" />
    <glyph glyph-name="dcroat" unicode="&#x111;" 
d="M420 512q0 -98 37 -152t101 -55q64 0 102 54q38 53 38 149t-38 162t-97 65q-143 0 -143 -223zM43 509q0 531 449 538q78 1 138 -19t83 -39l22 -18v233q-219 0 -225 3t0 80t12 81q94 0 213 -2l8 102h373v-110l127 -4l4 -137q-2 -2 -131 -7l2 -897l164 -10l2 -303l-48 -2
q-50 -2 -119 -3t-188 -4t-126 3l-25 74q-27 -54 -150 -80q-50 -11 -118 -11t-146 28t-152 86q-75 58 -122 170t-47 248z" />
    <glyph glyph-name="Emacron" unicode="&#x112;" horiz-adv-x="1325" 
d="M1286 504q0 -10 -19 -263t-21 -254t-562 5q-559 6 -564 1t-3 71q2 75 4 151t11 85t97 9h29l10 826l-137 -13l-27 324q4 12 818 12l272 -2q31 -47 26 -260q-2 -101 -12 -201v-18q0 -4 -140 -6t-154 -1q-14 0 -19 76q-6 76 -7 79t-115 5t-118 -2t-2 -118t5 -116q2 -1 56 -3
q156 -6 156 -10q0 -9 4 -75q4 -67 6 -110q1 -42 2 -68t-1 -30q-35 0 -131 -7t-100 -11t-3 -267q20 -10 134 -1t114 12l57 217q0 8 167 -14q167 -21 167 -23zM1026 1612l-696 -17q-10 -1 -8 141t8 146q10 4 356 12t352 -2q4 -12 -2 -146t-10 -134z" />
    <glyph glyph-name="emacron" unicode="&#x113;" horiz-adv-x="1062" 
d="M401 584l250 153q-6 17 -33 35t-55 19q-101 -1 -147 -69t-15 -138zM35 536q0 272 149 403q150 130 375 130q168 0 306 -110t145 -189l-56 -209l-395 -217q31 -37 363 -37q-4 -113 -35 -278l-10 -52q-387 -29 -615 129q-227 158 -227 430zM877 1202l-697 -16q-10 0 -8 141
t8 146q10 4 356 12t353 -2q4 -13 -2 -147t-10 -134z" />
    <glyph glyph-name="Ebreve" unicode="&#x114;" horiz-adv-x="1325" 
d="M1286 504q0 -10 -19 -263t-21 -254t-562 5q-559 6 -564 1t-3 71q2 75 4 151t11 85t97 9h29l10 826l-137 -13l-27 324q4 12 818 12l272 -2q31 -47 26 -260q-2 -101 -12 -201v-18q0 -4 -140 -6t-154 -1q-14 0 -19 76q-6 76 -7 79t-115 5t-118 -2t-2 -118t5 -116q2 -1 56 -3
q156 -6 156 -10q0 -9 4 -75q4 -67 6 -110q1 -42 2 -68t-1 -30q-35 0 -131 -7t-100 -11t-3 -267q20 -10 134 -1t114 12l57 217q0 8 167 -14q167 -21 167 -23zM672 1536q-324 0 -324 360q100 20 211 0q0 -53 36 -91t90 -38t89 35t35 88q25 12 107 16t96 -5q0 -140 -75 -247
q-39 -54 -107 -86t-158 -32z" />
    <glyph glyph-name="ebreve" unicode="&#x115;" horiz-adv-x="1062" 
d="M401 584l250 153q-6 17 -33 35t-55 19q-101 -1 -147 -69t-15 -138zM35 536q0 272 149 403q150 130 375 130q168 0 306 -110t145 -189l-56 -209l-395 -217q31 -37 363 -37q-4 -113 -35 -278l-10 -52q-387 -29 -615 129q-227 158 -227 430zM522 1147q-324 0 -323 360
q100 20 211 0q0 -53 36 -91t90 -38t89 35t34 88q25 11 108 15t95 -5q0 -142 -75 -246q-39 -54 -107 -86t-158 -32z" />
    <glyph glyph-name="Edotaccent" unicode="&#x116;" horiz-adv-x="1325" 
d="M1286 504q0 -10 -19 -263t-21 -254t-562 5q-559 6 -564 1t-3 71q2 75 4 151t11 85t97 9h29l10 826l-137 -13l-27 324q4 12 818 12l272 -2q31 -47 26 -260q-2 -101 -12 -201v-18q0 -4 -140 -6t-154 -1q-14 0 -19 76q-6 76 -7 79t-115 5t-118 -2t-2 -118t5 -116q2 -1 56 -3
q156 -6 156 -10q0 -9 4 -75q4 -67 6 -110q1 -42 2 -68t-1 -30q-35 0 -131 -7t-100 -11t-3 -267q20 -10 134 -1t114 12l57 217q0 8 167 -14q167 -21 167 -23zM694 1567q-96 0 -150 53t-58 146q-4 94 52 150t136 56t142 -59t62 -142t-43 -144q-45 -60 -141 -60z" />
    <glyph glyph-name="edotaccent" unicode="&#x117;" horiz-adv-x="1062" 
d="M401 584l250 153q-6 17 -33 35t-55 19q-101 -1 -147 -69t-15 -138zM35 536q0 272 149 403q150 130 375 130q168 0 306 -110t145 -189l-56 -209l-395 -217q31 -37 363 -37q-4 -113 -35 -278l-10 -52q-387 -29 -615 129q-227 158 -227 430zM729 1363q0 -83 -44 -143
t-140 -61q-96 0 -151 53q-54 52 -57 146t52 150t135 56t142 -58q62 -60 63 -143z" />
    <glyph glyph-name="Eogonek" unicode="&#x118;" horiz-adv-x="1325" 
d="M1286 504q0 -10 -19 -263t-22 -255h-76q-86 -115 -86 -224q0 -38 31 -66t62 -36l30 -8q6 -2 -20 -85t-29 -83q-59 -10 -188 34q-66 22 -113 80t-47 144q0 154 133 246q-817 10 -822 5t-3 71q2 75 4 151t11 85t97 9h29l10 826l-137 -13l-27 324q4 12 818 12l272 -2
q31 -47 26 -260q-2 -101 -12 -201v-18q0 -4 -140 -6t-154 -1q-14 0 -19 76q-6 76 -7 79t-115 5t-118 -2t-2 -118t5 -116q2 -1 56 -3q156 -6 156 -10q0 -9 4 -75q4 -67 6 -110q1 -42 2 -68t-1 -30q-35 0 -131 -7t-100 -11t-3 -267q20 -10 134 -1t114 12l57 217q0 8 167 -14
q167 -21 167 -23z" />
    <glyph glyph-name="eogonek" unicode="&#x119;" horiz-adv-x="1062" 
d="M401 584l250 153q-6 17 -33 35t-55 19q-101 -1 -147 -69t-15 -138zM436 -258q0 154 135 248q-254 41 -395 188t-141 369q0 262 149 392q150 130 375 130q168 0 306 -110t145 -189l-56 -209l-395 -217q31 -37 363 -37q-4 -113 -35 -278l-10 -52q-61 -4 -89 -4
q-78 -106 -77 -211q1 -38 31 -66t61 -36l31 -8q6 -2 -20 -85t-30 -83q-58 -9 -188 34q-66 22 -113 80t-47 144z" />
    <glyph glyph-name="Ecaron" unicode="&#x11a;" horiz-adv-x="1325" 
d="M1286 504q0 -10 -19 -263t-21 -254t-562 5q-559 6 -564 1t-3 71q2 75 4 151t11 85t97 9h29l10 826l-137 -13l-27 324q4 12 818 12l272 -2q31 -47 26 -260q-2 -101 -12 -201v-18q0 -4 -140 -6t-154 -1q-14 0 -19 76q-6 76 -7 79t-115 5t-118 -2t-2 -118t5 -116q2 -1 56 -3
q156 -6 156 -10q0 -9 4 -75q4 -67 6 -110q1 -42 2 -68t-1 -30q-35 0 -131 -7t-100 -11t-3 -267q20 -10 134 -1t114 12l57 217q0 8 167 -14q167 -21 167 -23zM1087 1853q6 0 -177 -140t-204 -148q-12 -5 -329 211l-107 71q141 211 174 228l238 -160l236 174q32 -5 120 -155
q20 -34 35 -58z" />
    <glyph glyph-name="ecaron" unicode="&#x11b;" horiz-adv-x="1062" 
d="M401 584l250 153q-6 17 -33 35t-55 19q-101 -1 -147 -69t-15 -138zM35 536q0 272 149 403q150 130 375 130q168 0 306 -110t145 -189l-56 -209l-395 -217q31 -37 363 -37q-4 -113 -35 -278l-10 -52q-387 -29 -615 129q-227 158 -227 430zM938 1452q7 0 -178 -141
t-204 -148q-9 -4 -329 211l-106 72q141 211 174 227l237 -160l236 175q33 -6 121 -155q20 -34 35 -58z" />
    <glyph glyph-name="Gcircumflex" unicode="&#x11c;" horiz-adv-x="1583" 
d="M778 1106q-133 0 -213 -125t-82 -283t86 -276q88 -119 232 -119q61 0 101 33t48 65l8 31l-172 -2q-16 18 -22 90t-4 135l2 62q105 19 512 -12l160 -11q20 -96 40 -359t19 -335q0 -6 -248 -18l-82 -5l-20 140q-47 -63 -149 -121t-220 -59q-336 1 -526 199t-193 550
q-3 204 59 358t168 242q211 174 488 174q174 0 277 -84q7 32 16 121q6 0 165 -27t161 -30l-37 -500l-348 -29q-47 195 -226 195zM563 1561q-39 7 -155 213l-15 22q-12 0 182 143t201 146q8 3 328 -211l106 -72q-141 -211 -174 -227l-237 160z" />
    <glyph glyph-name="gcircumflex" unicode="&#x11d;" 
d="M414 540q0 -90 49 -144t115 -54t112 52q45 52 45 136t-44 142q-45 58 -115 59q-70 0 -116 -51t-46 -140zM1153 14q0 -128 -49 -227q-48 -99 -104 -154t-148 -92t-213 -37t-214 31t-126 62l-31 30l117 295q82 -72 231 -72q109 0 151 94t13 158q-8 -12 -26 -29t-91 -46
t-149 -29q-233 0 -366 171q-105 137 -105 376q0 375 300 478q77 26 158 26t157 -26t112 -52l37 -25v103q272 10 434 4q0 -4 3 -83t5 -155l4 -76q-4 0 -66 -16t-65 -18q31 -430 31 -691zM434 1159q-34 6 -155 213l-15 23q-12 0 182 143t202 146q8 2 327 -211l106 -72
q-141 -211 -174 -227l-237 159z" />
    <glyph glyph-name="Gbreve" unicode="&#x11e;" horiz-adv-x="1583" 
d="M778 1106q-133 0 -213 -125t-82 -283t86 -276q88 -119 232 -119q61 0 101 33t48 65l8 31l-172 -2q-16 18 -22 90t-4 135l2 62q105 19 512 -12l160 -11q20 -96 40 -359t19 -335q0 -6 -248 -18l-82 -5l-20 140q-47 -63 -149 -121t-220 -59q-336 1 -526 199t-193 550
q-3 204 59 358t168 242q211 174 488 174q174 0 277 -84q7 32 16 121q6 0 165 -27t161 -30l-37 -500l-348 -29q-47 195 -226 195zM793 1536q-324 0 -324 360q100 20 211 0q0 -53 36 -91t90 -38t89 35t35 88q26 12 108 16t95 -5q0 -140 -75 -247q-38 -54 -106 -86t-159 -32z
" />
    <glyph glyph-name="gbreve" unicode="&#x11f;" 
d="M414 540q0 -90 49 -144t115 -54t112 52q45 52 45 136t-44 142q-45 58 -115 59q-70 0 -116 -51t-46 -140zM1153 14q0 -128 -49 -227q-48 -99 -104 -154t-148 -92t-213 -37t-214 31t-126 62l-31 30l117 295q82 -72 231 -72q109 0 151 94t13 158q-8 -12 -26 -29t-91 -46
t-149 -29q-233 0 -366 171q-105 137 -105 376q0 375 300 478q77 26 158 26t157 -26t112 -52l37 -25v103q272 10 434 4q0 -4 3 -83t5 -155l4 -76q-4 0 -66 -16t-65 -18q31 -430 31 -691zM664 1147q-324 0 -324 360q100 20 211 0q0 -53 36 -91t90 -38t89 35t35 88
q25 11 107 15t96 -5q0 -139 -75 -246q-39 -54 -107 -86t-158 -32z" />
    <glyph glyph-name="Gdotaccent" unicode="&#x120;" horiz-adv-x="1583" 
d="M778 1106q-133 0 -213 -125t-82 -283t86 -276q88 -119 232 -119q61 0 101 33t48 65l8 31l-172 -2q-16 18 -22 90t-4 135l2 62q105 19 512 -12l160 -11q20 -96 40 -359t19 -335q0 -6 -248 -18l-82 -5l-20 140q-47 -63 -149 -121t-220 -59q-336 1 -526 199t-193 550
q-3 204 59 358t168 242q211 174 488 174q174 0 277 -84q7 32 16 121q6 0 165 -27t161 -30l-37 -500l-348 -29q-47 195 -226 195zM999 1771q0 -83 -44 -143t-140 -61q-96 0 -150 53q-53 53 -57 146q-4 94 51 150t135 56t143 -59q62 -59 62 -142z" />
    <glyph glyph-name="gdotaccent" unicode="&#x121;" 
d="M414 540q0 -90 49 -144t115 -54t112 52q45 52 45 136t-44 142q-45 58 -115 59q-70 0 -116 -51t-46 -140zM1153 14q0 -128 -49 -227q-48 -99 -104 -154t-148 -92t-213 -37t-214 31t-126 62l-31 30l117 295q82 -72 231 -72q109 0 151 94t13 158q-8 -12 -26 -29t-91 -46
t-149 -29q-233 0 -366 171q-105 137 -105 376q0 375 300 478q77 26 158 26t157 -26t112 -52l37 -25v103q272 10 434 4q0 -4 3 -83t5 -155l4 -76q-4 0 -66 -16t-65 -18q31 -430 31 -691zM870 1363q0 -83 -44 -143t-140 -61q-96 0 -150 53q-54 52 -58 146t52 150t136 56
t142 -58q62 -60 62 -143z" />
    <glyph glyph-name="Gcommaaccent" unicode="&#x122;" horiz-adv-x="1583" 
d="M802 -109q88 0 149 -58q62 -58 77 -140q96 -567 -283 -635q-8 16 -21 57t-24 74l-8 31q125 10 166 112q31 78 -14 125q-20 23 -53 23q-104 0 -149 51q-44 52 -47 149t58 154t149 57zM778 1106q-133 0 -213 -125t-82 -283t86 -276q88 -119 232 -119q61 0 101 33t48 65
l8 31l-172 -2q-16 18 -22 90t-4 135l2 62q105 19 512 -12l160 -11q20 -96 40 -359t19 -335q0 -6 -248 -18l-82 -5l-20 140q-47 -63 -149 -121t-220 -59q-336 1 -526 199t-193 550q-3 204 59 358t168 242q211 174 488 174q174 0 277 -84q7 32 16 121q6 0 165 -27t161 -30
l-37 -500l-348 -29q-47 195 -226 195z" />
    <glyph glyph-name="gcommaaccent" unicode="&#x123;" 
d="M414 540q0 -90 49 -144t115 -54t112 52q45 52 45 136t-44 142q-45 58 -115 59q-70 0 -116 -51t-46 -140zM1153 14q0 -128 -49 -227q-48 -99 -104 -154t-148 -92t-213 -37t-214 31t-126 62l-31 30l117 295q82 -72 231 -72q109 0 151 94t13 158q-8 -12 -26 -29t-91 -46
t-149 -29q-233 0 -366 171q-105 137 -105 376q0 375 300 478q77 26 158 26t157 -26t112 -52l37 -25v103q272 10 434 4q0 -4 3 -83t5 -155l4 -76q-4 0 -66 -16t-65 -18q31 -430 31 -691zM650 1145q-87 0 -149 58t-77 140q-94 555 297 625q8 -16 21 -57t24 -72l8 -33
q-125 -10 -172 -108q-35 -74 6 -119q20 -23 54 -23q104 0 148 -51t47 -148t-58 -155q-62 -57 -149 -57z" />
    <glyph glyph-name="Hcircumflex" unicode="&#x124;" horiz-adv-x="1540" 
d="M671 287q32 0 33 -6q9 -56 16 -166q7 -109 3 -111q-16 -6 -314 -8t-325 18q-14 26 -13 134t7 114t43 11t72 10l34 2l-28 845q-119 -4 -129 7q-7 27 4 223l4 76l592 -11l14 -290l-143 -15l10 -225l395 -18l-4 251q-119 12 -121 12q-9 2 -16 114q-6 112 -4 167
q216 50 545 9l129 -15q-6 -281 -11 -280l-151 -25l26 -809l142 -16v-293q-41 0 -99 -1t-219 -3q-160 -2 -218 -1t-99 1l-6 299l143 14l-6 270l-416 13q-4 -299 6 -299l54 2h50zM535 1561q-31 5 -121 154q-20 34 -35 59l-14 22q-9 0 86 72q96 72 191 143q95 72 105 74
q9 3 328 -211l107 -72q-141 -211 -174 -227l-238 160z" />
    <glyph glyph-name="hcircumflex" unicode="&#x125;" 
d="M55 1454q0 10 371 16l125 5v-476q29 29 97 53t147 23q420 0 419 -524l-2 -268l86 -19q14 -201 0 -266l-530 6l-10 260l100 19l-2 219q0 207 -156 207q-61 -1 -107 -59t-46 -148l2 -226l123 -26l4 -246q-6 -6 -146 -6h-202l-190 2h-29q-15 105 -15 262l115 8l2 883
l-168 23l2 65q10 170 10 213zM131 1571q-31 5 -121 154q-20 34 -35 57l-14 24q-13 0 180 143t202 146t329 -211l106 -72q-141 -211 -174 -227l-237 160z" />
    <glyph glyph-name="Hbar" unicode="&#x126;" horiz-adv-x="1540" 
d="M551 834l395 -19l-2 129q-131 -2 -397 -2zM1481 -8q-41 0 -99 -1t-219 -3q-160 -2 -218 -1t-99 1l-6 299l143 14l-6 229l-416 13q-4 -258 6 -258l54 2h37q45 0 46 -6q9 -56 16 -166q7 -109 3 -111q-16 -6 -314 -8t-325 18q-14 26 -13 134t7 114t43 11t72 10l34 2l-22 655
q-105 0 -111 3t-4 69t8 69h103l-2 90q-119 -4 -129 7q-6 22 4 194l4 64l592 -11l14 -249l-143 -15l2 -84l399 -2v94q-119 13 -121 13q-10 2 -16 93t-4 146q216 50 545 9l129 -15q-6 -240 -11 -239l-151 -25l2 -80l160 -4q0 -90 -9 -115q0 -4 -147 -4l20 -647l142 -16v-293z
" />
    <glyph glyph-name="hbar" unicode="&#x127;" 
d="M225 1458q0 6 258 15l88 2l-6 -113q256 -4 256 -9t-7 -69t-10 -67q-3 -4 -245 -9l-8 -209q29 29 97 53t147 23q420 0 419 -524l-2 -268l86 -19q14 -201 0 -266l-530 6l-10 260l100 19l-2 219q0 207 -156 207q-61 -1 -107 -59t-46 -148l2 -226l123 -26l4 -246
q-6 -6 -146 -6h-202l-190 2h-29q-15 105 -15 262l115 8l10 934q-127 0 -132 3t1 80t12 81q47 0 117 -2q8 78 8 92z" />
    <glyph glyph-name="Itilde" unicode="&#x128;" horiz-adv-x="899" 
d="M213 283h35l-29 847q-119 -4 -129 7q-7 27 4 223l4 76l674 10l14 -291l-184 -35l27 -827q178 0 178 -14q0 -25 6 -146t-2 -129q-16 -6 -348 -8t-359 18q-14 27 -13 141t9 121q7 7 113 7zM593 1870q22 0 38 24t22 50l6 24q203 -16 252 -49q0 -113 -57 -215
q-79 -141 -229 -141q-97 1 -180 69t-128 68q-37 0 -53 -74q-6 -28 -10 -33q-12 -10 -262 41q0 8 -1 22q-4 54 14 124q56 220 292 223q103 1 231 -99q43 -34 65 -34z" />
    <glyph glyph-name="itilde" unicode="&#x129;" horiz-adv-x="872" 
d="M622 -2h-252l-238 2h-38q-14 98 -14 262l176 8l2 457q0 2 -27 1t-55 -2t-55 -3l-27 -2l-33 278q0 5 113 11q332 16 459 -13v-721l168 -26l4 -246q-7 -6 -183 -6zM276 1593q106 0 234 -99q42 -34 64 -34q39 0 61 74l6 25q203 -16 252 -50q0 -109 -57 -215
q-78 -138 -230 -141q-94 0 -179 69q-84 69 -128 68q-37 0 -53 -73q-6 -29 -10 -33q-12 -10 -263 41q0 8 -1 21q-7 95 45 202q75 145 259 145z" />
    <glyph glyph-name="Imacron" unicode="&#x12a;" horiz-adv-x="899" 
d="M213 283h35l-29 847q-119 -4 -129 7q-7 27 4 223l4 76l674 10l14 -291l-184 -35l27 -827q178 0 178 -14q0 -25 6 -146t-2 -129q-16 -6 -348 -8t-359 18q-14 27 -13 141t9 121q7 7 113 7zM797 1612l-697 -17q-10 -1 -8 141t8 146q10 4 356 12t353 -2q4 -12 -2 -146
t-10 -134z" />
    <glyph glyph-name="imacron" unicode="&#x12b;" horiz-adv-x="872" 
d="M622 -2h-252l-238 2h-38q-14 98 -14 262l176 8l2 457q0 2 -27 1t-55 -2t-55 -3l-27 -2l-33 278q0 5 113 11q332 16 459 -13v-721l168 -26l4 -246q-7 -6 -183 -6zM778 1202l-696 -16q-10 0 -8 141t8 146q10 4 356 12t353 -2q3 -13 -3 -147t-10 -134z" />
    <glyph glyph-name="Ibreve" unicode="&#x12c;" horiz-adv-x="899" 
d="M213 283h35l-29 847q-119 -4 -129 7q-7 27 4 223l4 76l674 10l14 -291l-184 -35l27 -827q178 0 178 -14q0 -25 6 -146t-2 -129q-16 -6 -348 -8t-359 18q-14 27 -13 141t9 121q7 7 113 7zM442 1536q-324 0 -323 360q100 20 211 0q0 -53 36 -91t90 -38t89 35t35 88
q26 12 108 16t94 -5q0 -142 -74 -247q-38 -54 -107 -86t-159 -32z" />
    <glyph glyph-name="ibreve" unicode="&#x12d;" horiz-adv-x="872" 
d="M622 -2h-252l-238 2h-38q-14 98 -14 262l176 8l2 457q0 2 -27 1t-55 -2t-55 -3l-27 -2l-33 278q0 5 113 11q332 16 459 -13v-721l168 -26l4 -246q-7 -6 -183 -6zM424 1147q-324 0 -324 360q100 20 211 0q0 -53 36 -91t90 -38t89 35t35 88q25 11 108 15t95 -5
q0 -139 -75 -246q-39 -54 -107 -86t-158 -32z" />
    <glyph glyph-name="Iogonek" unicode="&#x12e;" horiz-adv-x="899" 
d="M213 283h35l-29 847q-119 -4 -129 7q-7 27 4 223l4 76l674 10l14 -291l-184 -35l27 -827q178 0 178 -14q0 -25 6 -146t-2 -129q-4 -2 -188 -6q-96 -123 -97 -236q0 -38 31 -66t61 -36l31 -8q7 -2 -19 -85t-30 -83q-59 -10 -188 34q-66 22 -113 80t-47 144q0 156 143 254
q-279 0 -291 18q-14 27 -13 141t9 121q7 7 113 7z" />
    <glyph glyph-name="iogonek" unicode="&#x12f;" horiz-adv-x="872" 
d="M508 -238q0 -38 31 -66t61 -36l31 -8q6 -2 -20 -85t-29 -83q-59 -9 -189 34q-67 22 -113 80t-47 144q0 166 150 256h-125l-99 2h-65q-14 98 -14 262l176 8l2 416q0 2 -27 1t-55 -2t-55 -3l-27 -2l-33 278q0 6 113 12q332 16 459 -14v-680l168 -26l4 -246q-2 -2 -201 -6
q-96 -117 -96 -236zM430 1151q-100 0 -158 55q-57 54 -60 152t56 156q60 58 144 58t148 -60q64 -62 65 -148q0 -86 -47 -150q-48 -63 -148 -63z" />
    <glyph glyph-name="Idotaccent" unicode="&#x130;" horiz-adv-x="899" 
d="M213 283h35l-29 847q-119 -4 -129 7q-7 27 4 223l4 76l674 10l14 -291l-184 -35l27 -827q178 0 178 -14q0 -25 6 -146t-2 -129q-16 -6 -348 -8t-359 18q-14 27 -13 141t9 121q7 7 113 7zM444 1972q80 0 142 -59t63 -142q0 -83 -44 -143t-140 -61q-96 0 -151 53
q-54 53 -57 146q-3 94 52 150t135 56z" />
    <glyph glyph-name="dotlessi" unicode="&#x131;" horiz-adv-x="872" 
d="M622 -2h-252l-238 2h-38q-14 98 -14 262l176 8l2 457q0 2 -27 1t-55 -2t-55 -3l-27 -2l-33 278q0 5 113 11q332 16 459 -13v-721l168 -26l4 -246q-7 -6 -183 -6z" />
    <glyph glyph-name="IJ" unicode="&#x132;" horiz-adv-x="2048" 
d="M1349 309q57 0 92 39q34 39 34 105l-11 622q-213 -4 -227 -1t-25 123q-10 120 -10 212q100 25 292 34t332 7q142 -2 144 -6q23 -76 29 -344l-137 -23q16 -305 14 -635q-2 -147 -48 -256q-46 -110 -121 -164q-147 -107 -316 -106q-101 0 -193 33t-149 79q-119 96 -160 171
l-19 32l152 148q96 86 112 83t43 -42t71 -75t101 -36zM213 283h35l-29 847q-119 -4 -129 7q-7 27 4 223l4 76l674 10l14 -291l-184 -35l27 -827q178 0 178 -14q0 -25 6 -146t-2 -129q-16 -6 -348 -8t-359 18q-14 27 -13 141t9 121q7 7 113 7z" />
    <glyph glyph-name="ij" unicode="&#x133;" horiz-adv-x="1490" 
d="M985 -143q86 0 86 131q0 132 -20 328t-39 280l-138 18l-10 342q492 4 500 -10q28 -51 52 -375t24 -480q0 -157 -6 -215t-30 -132t-64 -127t-112 -91t-171 -38t-189 33t-131 65l-41 35l168 277q43 -41 121 -41zM622 -2h-252l-238 2h-38q-14 98 -14 262l176 8l2 416
q0 2 -27 1t-55 -2t-55 -3l-27 -2l-33 278q0 6 113 12q332 16 459 -14v-680l168 -26l4 -246q-7 -6 -183 -6zM430 1151q-100 0 -158 55q-57 54 -60 152t56 156q60 58 144 58t148 -60q64 -62 65 -148q0 -86 -47 -150q-48 -63 -148 -63zM1176 1151q-100 0 -158 55
q-56 54 -60 152t56 156t143 58q84 0 149 -60q64 -62 64 -148t-47 -150t-147 -63z" />
    <glyph glyph-name="Jcircumflex" unicode="&#x134;" horiz-adv-x="1210" 
d="M512 309q57 0 91 39t34 105l-10 622q-213 -4 -227 -1t-25 123q-10 120 -10 212q100 25 291 34q190 9 332 7t145 -6q23 -76 28 -344l-137 -23q16 -305 14 -635q-2 -147 -48 -256q-46 -110 -121 -164q-147 -106 -316 -106q-101 0 -193 33t-149 79q-115 93 -160 171l-18 32
l151 148q96 86 112 83t43 -42q28 -39 72 -75t101 -36zM539 1561q-31 5 -121 154q-20 34 -35 59l-14 22q-9 0 86 72q96 72 191 142q95 71 104 75t329 -211l107 -72q-141 -211 -174 -227l-238 160z" />
    <glyph glyph-name="jcircumflex" unicode="&#x135;" horiz-adv-x="677" 
d="M172 -143q86 0 86 132t-20 350t-39 298l-138 18l-10 342q492 4 500 -10q27 -51 51 -393t25 -500q0 -158 -6 -218q-6 -58 -30 -132t-64 -127q-41 -53 -113 -91t-170 -38t-188 33t-132 65l-41 35l168 277q43 -41 121 -41zM109 1155q-33 6 -121 155q-20 34 -35 58l-14 23
q-8 -1 87 71q285 215 296 218t327 -212l107 -71q-141 -211 -174 -228l-238 160z" />
    <glyph glyph-name="Kcommaaccent" unicode="&#x136;" horiz-adv-x="1435" 
d="M706 -109q88 0 149 -58q62 -58 77 -140q96 -567 -283 -635q-16 32 -43 131l-10 31q125 10 166 112q31 78 -14 125q-20 23 -54 23q-104 0 -148 52t-47 148q-3 97 58 154t149 57zM233 -4h-143q-2 6 -10 145t-2 140l147 10l-4 846q-160 12 -162 15t2 134q5 131 7 135
q2 3 274 15t281 6q6 -8 6 -150t-4 -149l-86 -35v-211q297 262 297 274q0 6 -44 9t-47 8q-2 6 -10 124t-8 130q0 4 150 6q151 2 301 -1t149 -9v-273q-4 -6 -53 -12t-53 -9q-5 -3 -143 -136q-138 -134 -144 -144t152 -291t165 -285q8 -4 95 -9l28 -5q2 -2 9 -130t1 -132
t-303 -13t-309 7q-10 30 -18 149t-6 119l34 -4q83 -5 90 -2q0 6 -92 192t-100 193q-8 6 -66 -50t-71 -73q-4 -18 -2 -64t4 -110l4 -65q0 -5 63 -15t64 -12l-8 -258q0 -10 -435 -10z" />
    <glyph glyph-name="kcommaaccent" unicode="&#x137;" horiz-adv-x="1435" 
d="M691 -109q87 0 149 -58t78 -140q96 -567 -283 -635q-13 27 -45 131l-8 31q125 10 166 112q31 78 -15 125q-20 23 -53 23q-104 0 -149 51q-44 52 -47 149q-4 97 58 154t149 57zM205 -4h-142q-2 6 -10 142t-2 136l148 11l-4 852q-160 2 -162 5t2 134t6 135t231 36t238 26
q31 -23 35 -235q2 -101 2 -192q0 -90 -2 -218t-2 -187q213 115 213 127q0 6 -45 17t-47 17t-11 110q-8 105 -8 118q64 10 354 -2q289 -12 289 -18v-273q-2 -6 -70 0t-73 2q-7 -4 -105 -86t-104 -91t141 -150q147 -140 155 -144t43 -7q34 -3 64 -7l33 -4q2 -2 9 -124t1 -126
t-322 -12t-329 8q-10 31 -18 143q-8 113 -6 113q8 0 43 7t34 11q-26 29 -120 107t-109 61q-6 -8 -6 -153q0 -5 43 -15t43 -12l-8 -252q0 -10 -422 -10z" />
    <glyph glyph-name="kgreenlandic" unicode="&#x138;" horiz-adv-x="1343" 
d="M225 -4h-131q-2 6 -10 142t-2 136l106 11l-4 428q-119 2 -121 5q-1 2 3 154t6 156t269 8t275 -2q27 -39 17 -145t-25 -139l-76 -15v-114q254 127 254 139q0 6 -34 17t-37 17q-2 6 -10 114q-8 110 -9 122q59 10 321 -2q261 -12 261 -18v-281q-2 -6 -49 0t-49 4l-62 -33
q-60 -36 -118 -70t-63 -42t107 -163t118 -158q7 -3 36 -6t55 -7l27 -4q2 -2 9 -124t1 -126t-281 -12t-288 8q-8 23 -17 139q-10 117 -8 117q8 0 43 7t34 10t-30 60t-65 99l-133 -70q-6 -8 -6 -73q0 -5 43 -15t43 -12t-4 -124q-5 -122 -5 -130t-391 -8z" />
    <glyph glyph-name="Lacute" unicode="&#x139;" horiz-adv-x="1177" 
d="M770 1177q0 -47 -4 -49l-168 -22q-13 -110 -23 -453q-10 -342 -8 -342q207 0 210 6q3 5 37 133t34 134t133 -12t137 -22q4 -2 7 -146t3 -266t-2 -142h-12q-1063 -16 -1063 4q0 6 -3 140t-1 159q2 2 71 5q68 3 70 5t7 343t14 472q-6 4 -33 4l-94 -4q-6 2 -12 157t6 165
q12 4 350 -4t338 -10l2 -15v-33l4 -158v-49zM756 1745q-586 -195 -599 -188t-44 69t-54 119l-22 59l594 238q19 -5 74 -150t51 -147z" />
    <glyph glyph-name="lacute" unicode="&#x13a;" horiz-adv-x="872" 
d="M119 1192q-4 0 -20 135q-15 135 -15 142t112 17q293 27 439 3v-1192l168 -14l4 -279q-5 -6 -177 -6h-246l-230 2h-37q-35 140 -35 283l176 28l-6 858q-2 3 -66 13t-67 10zM805 1767q-586 -194 -599 -187q-13 6 -44 68t-53 121l-23 58l594 237q8 -2 41 -76t61 -146
q28 -73 23 -75z" />
    <glyph glyph-name="Lcommaaccent" unicode="&#x13b;" horiz-adv-x="1177" 
d="M559 -520q-105 0 -149 52t-47 148q-3 97 59 154t148 57q88 0 150 -58t77 -140q96 -567 -283 -635q-16 32 -43 131l-10 31q125 10 166 112q31 78 -15 125q-20 23 -53 23zM770 1177q0 -47 -4 -49l-168 -22q-13 -110 -23 -453q-10 -342 -8 -342q207 0 210 6q3 5 37 133
t34 134t133 -12t137 -22q4 -2 7 -146t3 -266t-2 -142h-12q-1063 -16 -1063 4q0 6 -3 140t-1 159q2 2 71 5q68 3 70 5t7 343t14 472q-6 4 -33 4l-94 -4q-6 2 -12 157t6 165q12 4 350 -4t338 -10l2 -15v-33l4 -158v-49z" />
    <glyph glyph-name="lcommaaccent" unicode="&#x13c;" horiz-adv-x="872" 
d="M424 -109q88 0 150 -58t77 -140q96 -567 -282 -635q-13 27 -45 131l-9 31q125 10 166 112q31 78 -14 125q-20 23 -53 23q-104 0 -149 51q-44 52 -47 149t58 154q60 57 148 57zM119 1192q-4 0 -20 135q-15 135 -15 142t112 17q293 27 439 3v-1192l168 -14l4 -279
q-5 -6 -177 -6h-246l-230 2h-37q-35 140 -35 283l176 28l-6 858q-2 3 -66 13t-67 10z" />
    <glyph glyph-name="Lcaron" unicode="&#x13d;" horiz-adv-x="1177" 
d="M770 1177q0 -47 -4 -49l-168 -22q-13 -110 -23 -453q-10 -342 -8 -342q207 0 210 6q3 5 37 133t34 134t133 -12t137 -22q4 -2 7 -146t3 -266t-2 -142h-12q-1063 -16 -1063 4q0 6 -3 140t-1 159q2 2 71 5q68 3 70 5t7 343t14 472q-6 4 -33 4l-94 -4q-6 2 -12 157t6 165
q12 4 350 -4t338 -10l2 -15v-33l4 -158v-49zM805 1853q5 0 -178 -140t-204 -148q-12 -5 -329 211l-106 71q141 211 174 228l237 -160l236 174q33 -6 121 -155q20 -34 35 -58z" />
    <glyph glyph-name="lcaron" unicode="&#x13e;" horiz-adv-x="1132" 
d="M119 1192q-4 0 -20 135q-15 135 -15 142t112 17q293 27 439 3v-1192l168 -14l4 -279q-5 -6 -177 -6h-246l-230 2h-37q-35 140 -35 283l176 28l-6 858q-2 3 -66 13t-67 10zM918 1726q82 0 142 -60t73 -142q90 -561 -283 -633q-24 53 -43 133l-8 33q121 10 164 108
q33 76 -7 119q-18 20 -49 21q-100 0 -142 52t-45 152q-3 101 56 159q60 58 142 58z" />
    <glyph glyph-name="Ldot" unicode="&#x13f;" horiz-adv-x="1327" 
d="M1302 798q-44 -60 -140 -60t-152 52q-54 54 -57 147t53 149t135 56q80 0 142 -58q63 -60 63 -143t-44 -143zM770 1177q0 -47 -4 -49l-168 -22q-13 -110 -23 -453q-10 -342 -8 -342q207 0 210 6q3 5 37 133t34 134t133 -12t137 -22q4 -2 7 -146t3 -266t-2 -142h-12
q-1063 -16 -1063 4q0 6 -3 140t-1 159q2 2 71 5q68 3 70 5t7 343t14 472q-6 4 -33 4l-94 -4q-6 2 -12 157t6 165q12 4 350 -4t338 -10l2 -15v-33l4 -158v-49z" />
    <glyph glyph-name="ldot" unicode="&#x140;" horiz-adv-x="1146" 
d="M1169 845q0 -83 -44 -143t-140 -61q-97 -1 -151 53t-57 147t52 149t135 56t143 -58q62 -60 62 -143zM119 1192q-4 0 -20 135q-15 135 -15 142t112 17q293 27 439 3v-1192l168 -14l4 -279q-5 -6 -177 -6h-246l-230 2h-37q-35 140 -35 283l176 28l-6 858q-2 3 -66 13
t-67 10z" />
    <glyph glyph-name="Lslash" unicode="&#x141;" horiz-adv-x="1177" 
d="M770 1177q0 -47 -4 -49l-168 -22q-2 -10 -14 -229q164 66 172 64t43 -97l12 -33l-233 -100q-11 -292 -11 -341v-59q207 0 210 6q3 5 37 133t34 134t133 -12t137 -22q4 -2 7 -146t3 -266t-2 -142h-12q-1063 -16 -1063 4q0 6 -3 140t-1 159q2 2 71 5t70 5l7 238l-86 -37
l-50 137q2 6 138 66q12 408 12 411q-6 4 -33 4l-94 -4q-6 2 -12 157t6 165q12 4 350 -4t338 -10l2 -15v-33l4 -158v-49z" />
    <glyph glyph-name="lslash" unicode="&#x142;" horiz-adv-x="872" 
d="M119 1192q-4 0 -20 135q-15 135 -15 142t112 17q293 27 439 3v-592q111 45 120 43t44 -96l12 -33l-176 -76v-438l168 -14l4 -279q-5 -6 -177 -6h-246l-230 2h-37q-35 140 -35 283l176 28l-2 262l-147 -63l-50 137q4 8 195 90l-2 432q-2 3 -66 13t-67 10z" />
    <glyph glyph-name="Nacute" unicode="&#x143;" horiz-adv-x="1468" 
d="M784 1147q-2 0 -16 131t-4 154q12 4 333 6t320 -2l2 -31q2 -31 3 -71t4 -109t-7 -68q-10 0 -73 -7t-64 -9l4 -121q2 -123 6 -288q17 -712 11 -746q-2 0 -158 -12t-162 -1l-434 729q0 -399 7 -407t43 -13q36 -6 70 -10q33 -4 33 -8t13 -115t4 -135q-5 -5 -103 -9
q-98 -3 -229 -9t-186 -7t-90 -1t-33 2q4 6 -7 131t-10 127q4 2 69 11t69 12t0 313t-13 483q-22 -2 -74 -2t-57 4q-4 4 -16 179q-12 174 -7 178t112 4l202 -3q45 0 78 -2h33l504 -714q8 28 -5 315l-4 111q-166 10 -168 10zM1087 1745q-586 -195 -599 -188t-44 69t-53 119
l-22 59l594 238q19 -5 74 -150t50 -147z" />
    <glyph glyph-name="nacute" unicode="&#x144;" 
d="M795 1075q420 0 419 -524l-2 -268l86 -19q14 -201 0 -266l-530 6l-10 260l100 19l-2 219q0 207 -156 207q-61 -1 -107 -59t-46 -148l2 -226l123 -26l4 -246q-6 -6 -152 -6h-209l-196 2h-31q-14 98 -14 262l135 8l2 490q-8 2 -33 0t-57 -4l-33 -2l-33 286q0 11 305 41
l101 13l65 -148q10 14 30 36t91 58q70 36 148 35zM1038 1356q-586 -195 -599 -188q-13 6 -44 68t-53 120l-23 59l594 238q17 -4 74 -150q56 -145 51 -147z" />
    <glyph glyph-name="Ncommaaccent" unicode="&#x145;" horiz-adv-x="1468" 
d="M712 -109q88 0 149 -58q62 -58 77 -140q96 -567 -283 -635q-8 16 -21 57t-24 74l-8 31q125 10 166 112q31 78 -14 125q-20 23 -54 23q-104 0 -148 52t-47 148q-3 97 58 154t149 57zM784 1147q-2 0 -16 131t-4 154q12 4 333 6t320 -2l2 -31q2 -31 3 -71t4 -109t-7 -68
q-10 0 -73 -7t-64 -9l4 -121q2 -123 6 -288q17 -712 11 -746q-2 0 -158 -12t-162 -1l-434 729q0 -399 7 -407t43 -13q36 -6 70 -10q33 -4 33 -8t13 -115t4 -135q-5 -5 -103 -9q-98 -3 -229 -9t-186 -7t-90 -1t-33 2q4 6 -7 131t-10 127q4 2 69 11t69 12t0 313t-13 483
q-22 -2 -74 -2t-57 4q-4 4 -16 179q-12 174 -7 178t112 4l202 -3q45 0 78 -2h33l504 -714q8 28 -5 315l-4 111q-166 10 -168 10z" />
    <glyph glyph-name="ncommaaccent" unicode="&#x146;" 
d="M662 -109q88 0 150 -58t77 -140q96 -567 -283 -635q-8 16 -21 57t-24 74l-8 31q125 10 166 112q31 78 -14 125q-20 23 -54 23q-104 0 -148 52t-47 148q-3 97 58 154q60 57 148 57zM795 1075q420 0 419 -524l-2 -268l86 -19q14 -201 0 -266l-530 6l-10 260l100 19l-2 219
q0 207 -156 207q-61 -1 -107 -59t-46 -148l2 -226l123 -26l4 -246q-6 -6 -152 -6h-209l-196 2h-31q-14 98 -14 262l135 8l2 490q-8 2 -33 0t-57 -4l-33 -2l-33 286q0 11 305 41l101 13l65 -148q10 14 30 36t91 58q70 36 148 35z" />
    <glyph glyph-name="Ncaron" unicode="&#x147;" horiz-adv-x="1468" 
d="M784 1147q-2 0 -16 131t-4 154q12 4 333 6t320 -2l2 -31q2 -31 3 -71t4 -109t-7 -68q-10 0 -73 -7t-64 -9l4 -121q2 -123 6 -288q17 -712 11 -746q-2 0 -158 -12t-162 -1l-434 729q0 -399 7 -407t43 -13q36 -6 70 -10q33 -4 33 -8t13 -115t4 -135q-5 -5 -103 -9
q-98 -3 -229 -9t-186 -7t-90 -1t-33 2q4 6 -7 131t-10 127q4 2 69 11t69 12t0 313t-13 483q-22 -2 -74 -2t-57 4q-4 4 -16 179q-12 174 -7 178t112 4l202 -3q45 0 78 -2h33l504 -714q8 28 -5 315l-4 111q-166 10 -168 10zM1137 1853q5 0 -178 -140t-204 -148
q-12 -5 -329 211l-107 71q141 211 175 228l237 -160l236 174q32 -5 120 -155q20 -34 35 -58z" />
    <glyph glyph-name="ncaron" unicode="&#x148;" 
d="M795 1075q420 0 419 -524l-2 -268l86 -19q14 -201 0 -266l-530 6l-10 260l100 19l-2 219q0 207 -156 207q-61 -1 -107 -59t-46 -148l2 -226l123 -26l4 -246q-6 -6 -152 -6h-209l-196 2h-31q-14 98 -14 262l135 8l2 490q-8 2 -33 0t-57 -4l-33 -2l-33 286q0 11 305 41
l101 13l65 -148q10 14 30 36t91 58q70 36 148 35zM1087 1452q8 0 -177 -141t-204 -148q-9 -4 -329 211l-107 72q141 211 174 227l238 -160l236 175q32 -5 120 -155q20 -34 35 -58z" />
    <glyph glyph-name="napostrophe" unicode="&#x149;" horiz-adv-x="1724" 
d="M459 1038q0 13 303 43l102 13l66 -148q10 14 30 36t91 58q70 36 147 35q420 0 420 -524l-2 -268l86 -19q14 -201 0 -266l-531 6l-10 260l101 19l-2 219q0 207 -156 207q-62 -1 -108 -59t-46 -148l2 -226l123 -26l4 -246q-6 -6 -151 -6h-209l-197 2h-30q-15 105 -15 262
l135 8l2 490q-8 2 -32 0t-58 -4l-32 -2q-2 0 -18 139q-15 139 -15 145zM184 1726q82 0 142 -60t73 -142q91 -561 -282 -633q-24 53 -43 133l-8 33q121 10 163 108q33 76 -6 119q-18 20 -49 21q-100 0 -142 52t-45 152q-3 101 56 159t141 58z" />
    <glyph glyph-name="Eng" unicode="&#x14a;" horiz-adv-x="1468" 
d="M784 1147q-2 0 -16 131t-4 154q12 4 333 6t320 -2l2 -31q2 -31 3 -71t4 -109t-7 -68q-10 0 -73 -7t-64 -9v-56q8 -212 14 -545q6 -332 7 -422q2 -89 0 -132q-7 -211 -153 -340t-345 -138q-4 10 -10 28q-7 18 -23 68l-29 89q-33 107 -30 121q17 4 60 29q139 80 145 180
q2 55 -91 225q-92 170 -184 313l-94 141q0 -399 7 -407t43 -13q36 -6 70 -10q33 -4 33 -8t13 -115t4 -135q-5 -5 -103 -9q-98 -3 -229 -9t-186 -7t-90 -1t-33 2q4 6 -7 131t-10 127q4 2 69 11t69 12t0 313t-13 483q-22 -2 -74 -2t-57 4q-4 4 -16 179q-12 174 -7 178t112 4
l202 -3q45 0 78 -2h33l504 -714q8 28 -5 315l-4 111q-166 10 -168 10z" />
    <glyph glyph-name="eng" unicode="&#x14b;" 
d="M795 1075q178 0 302 -103t136 -337q8 -184 5 -397t-15 -299q-29 -195 -159 -309t-321 -122q-5 12 -26 79q-69 212 -66 227q25 6 67 27t68 44t50 63q23 40 22 85l-2 469q0 207 -156 207q-61 -1 -107 -59t-46 -148l2 -226l123 -26l4 -246q-6 -6 -152 -6h-209l-196 2h-31
q-14 98 -14 262l135 8l2 490q-8 2 -33 0t-57 -4l-33 -2l-33 286q0 11 305 41l101 13l65 -148q10 14 30 36t91 58q70 36 148 35z" />
    <glyph glyph-name="Omacron" unicode="&#x14c;" horiz-adv-x="1488" 
d="M760 373q108 0 175 81t67 255t-60 276q-59 102 -182 102q-274 0 -275 -376q0 -166 83 -252q84 -86 192 -86zM61 731q0 561 431 697q123 40 272 40q297 0 481 -198q185 -198 185 -523q0 -326 -158 -547q-78 -110 -208 -173t-298 -64q-326 1 -516 189t-189 579zM1122 1612
l-696 -17q-10 -1 -8 141t8 146q10 4 356 12t353 -2q4 -12 -2 -146t-11 -134z" />
    <glyph glyph-name="omacron" unicode="&#x14d;" horiz-adv-x="1124" 
d="M414 505q0 -89 52 -143t114 -53q62 0 102 49q39 48 39 140t-36 153q-35 61 -113 61t-118 -58q-40 -60 -40 -149zM41 513q0 282 146 410q147 128 377 128q230 1 370 -143t139 -386q0 -242 -127 -402q-127 -161 -373 -161t-389 136t-143 418zM926 1202l-697 -16
q-10 0 -8 141t8 146q11 4 357 12t352 -2q4 -13 -2 -147t-10 -134z" />
    <glyph glyph-name="Obreve" unicode="&#x14e;" horiz-adv-x="1488" 
d="M760 373q108 0 175 81t67 255t-60 276q-59 102 -182 102q-274 0 -275 -376q0 -166 83 -252q84 -86 192 -86zM61 731q0 561 431 697q123 40 272 40q297 0 481 -198q185 -198 185 -523q0 -326 -158 -547q-78 -110 -208 -173t-298 -64q-326 1 -516 189t-189 579zM768 1536
q-324 0 -324 360q100 20 211 0q0 -53 36 -91t90 -38t89 35t35 88q25 12 108 16t95 -5q0 -143 -75 -247q-39 -54 -107 -86t-158 -32z" />
    <glyph glyph-name="obreve" unicode="&#x14f;" horiz-adv-x="1124" 
d="M414 505q0 -89 52 -143t114 -53q62 0 102 49q39 48 39 140t-36 153q-35 61 -113 61t-118 -58q-40 -60 -40 -149zM41 513q0 282 146 410q147 128 377 128q230 1 370 -143t139 -386q0 -242 -127 -402q-127 -161 -373 -161t-389 136t-143 418zM571 1147q-324 0 -323 360
q100 20 211 0q0 -53 36 -91t90 -38t89 35t35 88q25 11 107 15t95 -5q0 -141 -74 -246q-38 -54 -107 -86t-159 -32z" />
    <glyph glyph-name="Ohungarumlaut" unicode="&#x150;" horiz-adv-x="1488" 
d="M760 373q108 0 175 81t67 255t-60 276q-59 102 -182 102q-274 0 -275 -376q0 -166 83 -252q84 -86 192 -86zM61 731q0 561 431 697q123 40 272 40q297 0 481 -198q185 -198 185 -523q0 -326 -158 -547q-78 -110 -208 -173t-298 -64q-326 1 -516 189t-189 579zM635 1561
q-4 -1 -85 21t-86 27q-10 10 58 341l23 108q41 14 179 -12t138 -28t-112 -230q-112 -227 -115 -227zM1075 1563q-197 33 -200 40t69 241t76 239q-4 2 159 -22t156 -31z" />
    <glyph glyph-name="ohungarumlaut" unicode="&#x151;" horiz-adv-x="1124" 
d="M414 505q0 -89 52 -143t114 -53q62 0 102 49q39 48 39 140t-36 153q-35 61 -113 61t-118 -58q-40 -60 -40 -149zM41 513q0 282 146 410q147 128 377 128q230 1 370 -143t139 -386q0 -242 -127 -402q-127 -161 -373 -161t-389 136t-143 418zM666 1608q0 -2 -112 -230
t-116 -227q-4 -1 -85 21t-89 30t62 338l22 109q46 16 249 -26q69 -13 69 -15zM879 1153q-197 33 -200 40t69 241t75 239q-4 2 159 -22t157 -31z" />
    <glyph glyph-name="OE" unicode="&#x152;" horiz-adv-x="1947" 
d="M746 373q96 0 149 33q35 475 10 636q-55 45 -145 45q-274 0 -275 -376q0 -166 83 -252q82 -86 178 -86zM766 -37q-326 1 -516 189t-189 579q0 561 431 697q124 40 240 40t186 -14l899 2q18 -27 21 -81q11 -191 -7 -380v-18q0 -4 -140 -6t-153 -1q-13 0 -20 76t-8 79
q0 3 -114 5t-118 -2t-2 -118t5 -116q3 -1 56 -3t105 -5t51 -5q0 -2 2 -32t4 -70t3 -83q1 -42 2 -68t-1 -30q-31 0 -129 -7t-101 -11t-3 -267q19 -10 134 -1q114 9 114 12l57 217q0 8 167 -14q167 -21 167 -23q1 -10 -19 -263t-22 -255l-62 2l-823 8q-104 -33 -217 -33z" />
    <glyph glyph-name="oe" unicode="&#x153;" horiz-adv-x="1732" 
d="M414 505q0 -89 52 -143t114 -53q62 0 102 49q39 48 39 140t-36 153q-35 61 -113 61t-118 -58q-40 -60 -40 -149zM1071 584l250 153q-6 17 -33 35t-55 19q-101 -1 -147 -69t-15 -138zM41 513q0 282 146 410t384 128q190 0 320 -105q141 123 323 123t321 -110
q138 -110 144 -189l-55 -209l-395 -217q31 -37 362 -37q-4 -131 -35 -278l-10 -52q-383 -27 -606 138q-135 -156 -374 -156t-382 136t-143 418z" />
    <glyph glyph-name="Racute" unicode="&#x154;" horiz-adv-x="1429" 
d="M813 1019q0 60 -64 83q-65 23 -131 16l-65 -4v-42l-2 -172v-34l45 2q45 0 91 8t86 45q40 38 40 98zM551 268q88 0 88 -8v-260l-547 6l-4 26q-35 245 -3 243q32 -1 80 5t48 15v821q-131 -4 -135 5t0 160t10 157q35 4 250 -1t288 -5q232 0 347 -36q260 -80 260 -341
q0 -201 -128 -333q-30 -30 -50 -42l-21 -12l199 -406q121 4 121 0l2 -41q2 -43 8 -130t1 -97t-312 -7t-310 15q-4 18 -4 136t9 118q94 0 94 10t-69 160t-73 149l-155 -16q-10 1 -6 -145t12 -146zM1012 1745q-586 -195 -599 -188t-44 69t-54 119l-22 59l594 238
q19 -5 74 -150t51 -147z" />
    <glyph glyph-name="racute" unicode="&#x155;" horiz-adv-x="1171" 
d="M780 1063q80 0 161 -38t121 -75t38 -50t-56 -86t-105 -136q-52 -63 -56 -60q-82 82 -159 82t-126 -57t-49 -133q0 -142 16 -213l209 -27l4 -266q-6 -6 -177 -6h-246l-230 2h-37q-14 112 -14 283l135 8l2 481q-8 2 -33 0t-57 -4l-33 -2l-33 266q0 7 310 58l104 14l66 -139
q8 10 24 26q17 16 79 44t142 28zM836 1356q-586 -195 -599 -188q-13 6 -44 68t-54 120l-22 59l594 238q19 -5 74 -150t51 -147z" />
    <glyph glyph-name="Rcommaaccent" unicode="&#x156;" horiz-adv-x="1429" 
d="M699 -109q87 0 149 -58t78 -140q96 -567 -283 -635q-8 16 -21 57t-24 74l-8 31q125 10 166 112q31 78 -15 125q-20 23 -53 23q-104 0 -148 52t-47 148q-3 97 58 154t148 57zM813 1019q0 60 -64 83q-65 23 -131 16l-65 -4v-42l-2 -172v-34l45 2q45 0 91 8t86 45
q40 38 40 98zM551 268q88 0 88 -8v-260l-547 6l-4 26q-35 245 -3 243q32 -1 80 5t48 15v821q-131 -4 -135 5t0 160t10 157q35 4 250 -1t288 -5q232 0 347 -36q260 -80 260 -341q0 -201 -128 -333q-30 -30 -50 -42l-21 -12l199 -406q121 4 121 0l2 -41q2 -43 8 -130t1 -97
t-312 -7t-310 15q-4 18 -4 136t9 118q94 0 94 10t-69 160t-73 149l-155 -16q-10 1 -6 -145t12 -146z" />
    <glyph glyph-name="rcommaaccent" unicode="&#x157;" horiz-adv-x="1171" 
d="M416 -109q88 0 150 -58t77 -140q96 -567 -283 -635q-8 16 -21 57t-24 74l-8 31q125 10 166 112q31 78 -14 125q-20 23 -53 23q-104 0 -149 51q-44 52 -47 149t58 154q60 57 148 57zM780 1063q80 0 161 -38t121 -75t38 -50t-56 -86t-105 -136q-52 -63 -56 -60
q-82 82 -159 82t-126 -57t-49 -133q0 -142 16 -213l209 -27l4 -266q-6 -6 -177 -6h-246l-230 2h-37q-14 112 -14 283l135 8l2 481q-8 2 -33 0t-57 -4l-33 -2l-33 266q0 7 310 58l104 14l66 -139q8 10 24 26q17 16 79 44t142 28z" />
    <glyph glyph-name="Rcaron" unicode="&#x158;" horiz-adv-x="1429" 
d="M813 1019q0 60 -64 83q-65 23 -131 16l-65 -4v-42l-2 -172v-34l45 2q45 0 91 8t86 45q40 38 40 98zM551 268q88 0 88 -8v-260l-547 6l-4 26q-35 245 -3 243q32 -1 80 5t48 15v821q-131 -4 -135 5t0 160t10 157q35 4 250 -1t288 -5q232 0 347 -36q260 -80 260 -341
q0 -201 -128 -333q-30 -30 -50 -42l-21 -12l199 -406q121 4 121 0l2 -41q2 -43 8 -130t1 -97t-312 -7t-310 15q-4 18 -4 136t9 118q94 0 94 10t-69 160t-73 149l-155 -16q-10 1 -6 -145t12 -146zM1061 1853q5 0 -178 -140t-204 -148q-12 -5 -329 211l-106 71
q141 211 174 228l237 -160l236 174q33 -6 121 -155q20 -34 35 -58z" />
    <glyph glyph-name="rcaron" unicode="&#x159;" horiz-adv-x="1171" 
d="M780 1063q80 0 161 -38t121 -75t38 -50t-56 -86t-105 -136q-52 -63 -56 -60q-82 82 -159 82t-126 -57t-49 -133q0 -142 16 -213l209 -27l4 -266q-6 -6 -177 -6h-246l-230 2h-37q-14 112 -14 283l135 8l2 481q-8 2 -33 0t-57 -4l-33 -2l-33 266q0 7 310 58l104 14l66 -139
q8 10 24 26q17 16 79 44t142 28zM885 1452q7 0 -178 -141t-204 -148q-9 -4 -329 211l-106 72q141 211 174 227l237 -160l236 175q34 -6 155 -213z" />
    <glyph glyph-name="Sacute" unicode="&#x15a;" horiz-adv-x="1161" 
d="M585 1159q-46 1 -83 -23t-37 -67t37 -72t130 -75q92 -46 156 -82q241 -140 293 -295q25 -72 25 -162q0 -170 -124 -288t-282 -118q-217 0 -317 115q-2 -18 -4 -51t-4 -53l-2 -23l-310 19q-4 45 -4 520q213 47 322 31q27 -97 80 -155t103 -58t83 24t33 64q0 75 -56 117
t-198 110q-86 45 -136 79q-150 102 -195 230q-28 80 -27 184q0 158 120 264q121 105 322 105q150 0 227 -82l15 99q213 8 313 -35q5 -3 -9 -222q-15 -219 -16 -243q0 -29 -239 -26q-80 1 -80 5q-6 82 -48 123t-88 41zM940 1745q-586 -195 -599 -188t-44 69t-53 119l-23 59
l594 238q19 -5 74 -150t51 -147z" />
    <glyph glyph-name="sacute" unicode="&#x15b;" horiz-adv-x="1024" 
d="M438 264q76 0 76 53q0 39 -28 57q-56 35 -142 66q-195 89 -242 209q-23 59 -22 135q0 115 101 201t252 86t218 -59l13 71q205 6 292 -24q6 -3 -7 -178q-13 -174 -13 -187q-15 -12 -148 -3t-133 14q-4 45 -37 67t-69 23q-63 0 -64 -52q0 -18 28 -35q27 -17 93 -44t94 -41
q106 -49 182 -141t74 -215q0 -124 -100 -209t-238 -85q-193 0 -266 68l-10 -84l-279 23q-4 31 -4 393q61 10 151 12t103 -2q19 -55 55 -87t70 -32zM866 1356q-586 -195 -599 -188q-13 6 -44 68t-53 120l-23 59l594 238q17 -4 74 -150q56 -145 51 -147z" />
    <glyph glyph-name="Scircumflex" unicode="&#x15c;" horiz-adv-x="1161" 
d="M585 1159q-46 1 -83 -23t-37 -67t37 -72t130 -75q92 -46 156 -82q241 -140 293 -295q25 -72 25 -162q0 -170 -124 -288t-282 -118q-217 0 -317 115q-2 -18 -4 -51t-4 -53l-2 -23l-310 19q-4 45 -4 520q213 47 322 31q27 -97 80 -155t103 -58t83 24t33 64q0 75 -56 117
t-198 110q-86 45 -136 79q-150 102 -195 230q-28 80 -27 184q0 158 120 264q121 105 322 105q150 0 227 -82l15 99q213 8 313 -35q5 -3 -9 -222q-15 -219 -16 -243q0 -29 -239 -26q-80 1 -80 5q-6 82 -48 123t-88 41zM344 1561q-31 5 -121 154q-20 34 -35 59l-14 22
q-12 0 182 143t201 146q8 3 328 -211l106 -72q-141 -211 -174 -227l-237 160z" />
    <glyph glyph-name="scircumflex" unicode="&#x15d;" horiz-adv-x="1024" 
d="M438 264q76 0 76 53q0 39 -28 57q-56 35 -142 66q-195 89 -242 209q-23 59 -22 135q0 115 101 201t252 86t218 -59l13 71q205 6 292 -24q6 -3 -7 -178q-13 -174 -13 -187q-15 -12 -148 -3t-133 14q-4 45 -37 67t-69 23q-63 0 -64 -52q0 -18 28 -35q27 -17 93 -44t94 -41
q106 -49 182 -141t74 -215q0 -124 -100 -209t-238 -85q-193 0 -266 68l-10 -84l-279 23q-4 31 -4 393q61 10 151 12t103 -2q19 -55 55 -87t70 -32zM270 1159q-32 5 -120 155q-20 34 -35 58l-15 23q-12 0 182 143t202 146q8 2 327 -211l107 -72q-141 -211 -175 -227l-237 159
z" />
    <glyph glyph-name="Scedilla" unicode="&#x15e;" horiz-adv-x="1161" 
d="M585 1159q-46 1 -83 -23t-37 -67t37 -72t130 -75q92 -46 156 -82q241 -140 293 -295q25 -72 25 -162q0 -155 -108 -269t-253 -132l-4 -86q17 -6 52 -27q114 -71 114 -184q0 -65 -38 -108t-85 -66q-122 -59 -219 -74q-7 -7 -33 88q-26 94 -23 95t48 9t66 31q22 22 22 47
t-36 47t-70 25l-35 4q4 172 4 223q-78 29 -125 86q-2 -18 -4 -51t-4 -53l-2 -23l-310 19q-4 45 -4 520q213 47 322 31q27 -97 80 -155t103 -58t83 24t33 64q0 75 -56 117t-198 110q-86 45 -136 79q-150 102 -195 230q-28 80 -27 184q0 158 120 264q121 105 322 105
q150 0 227 -82l15 99q213 8 313 -35q5 -3 -9 -222q-15 -219 -16 -243q0 -29 -239 -26q-80 1 -80 5q-6 82 -48 123t-88 41z" />
    <glyph glyph-name="scedilla" unicode="&#x15f;" horiz-adv-x="1024" 
d="M438 264q76 0 76 53q0 39 -28 57q-56 35 -142 66q-195 89 -242 209q-23 59 -22 135q0 115 101 201t252 86t218 -59l13 71q205 6 292 -24q6 -3 -7 -178q-13 -174 -13 -187q-15 -12 -148 -3t-133 14q-4 45 -37 67t-69 23q-63 0 -64 -52q0 -18 28 -35q27 -17 93 -44t94 -41
q106 -49 182 -141t74 -209q0 -119 -82 -199t-202 -97l-4 -81q15 -5 51 -27q113 -70 114 -184q1 -113 -141 -184q-109 -49 -200 -64q-2 -2 -34 88t-22 96q30 -1 70 17t53 31q12 13 12 38q1 25 -35 47t-71 25l-35 4q4 150 4 213q-49 12 -82 45l-10 -84l-279 23q-4 31 -4 393
q61 10 151 12t103 -2q19 -55 55 -87t70 -32z" />
    <glyph glyph-name="Scaron" unicode="&#x160;" horiz-adv-x="1161" 
d="M585 1159q-46 1 -83 -23t-37 -67t37 -72t130 -75q92 -46 156 -82q241 -140 293 -295q25 -72 25 -162q0 -170 -124 -288t-282 -118q-217 0 -317 115q-2 -18 -4 -51t-4 -53l-2 -23l-310 19q-4 45 -4 520q213 47 322 31q27 -97 80 -155t103 -58t83 24t33 64q0 75 -56 117
t-198 110q-86 45 -136 79q-150 102 -195 230q-28 80 -27 184q0 158 120 264q121 105 322 105q150 0 227 -82l15 99q213 8 313 -35q5 -3 -9 -222q-15 -219 -16 -243q0 -29 -239 -26q-80 1 -80 5q-6 82 -48 123t-88 41zM279 1776l-107 71q141 211 174 228l238 -160l235 174
q33 -6 121 -155q20 -34 35 -58l14 -23q9 0 -180 -141q-188 -141 -200 -146q-13 -5 -330 210z" />
    <glyph glyph-name="scaron" unicode="&#x161;" horiz-adv-x="1024" 
d="M438 264q76 0 76 53q0 39 -28 57q-56 35 -142 66q-195 89 -242 209q-23 59 -22 135q0 115 101 201t252 86t218 -59l13 71q205 6 292 -24q6 -3 -7 -178q-13 -174 -13 -187q-15 -12 -148 -3t-133 14q-4 45 -37 67t-69 23q-63 0 -64 -52q0 -18 28 -35q27 -17 93 -44t94 -41
q106 -49 182 -141t74 -215q0 -124 -100 -209t-238 -85q-193 0 -266 68l-10 -84l-279 23q-4 31 -4 393q61 10 151 12t103 -2q19 -55 55 -87t70 -32zM915 1452q9 0 -124 -100q-242 -183 -258 -189q-8 -3 -328 211l-107 72q141 211 174 227l238 -160l235 175q33 -6 121 -155
q20 -34 35 -58z" />
    <glyph glyph-name="Tcommaaccent" unicode="&#x162;" horiz-adv-x="1429" 
d="M672 -109q88 0 150 -58t77 -140q96 -567 -283 -635q-16 32 -43 131l-10 31q125 10 166 112q31 78 -14 125q-20 23 -53 23q-104 0 -149 51q-44 52 -47 149t58 154q60 57 148 57zM205 854q-137 6 -164 6q-6 0 -7 135q-3 402 19 428q21 21 652 41q630 19 632 14q2 -6 6 -306
q5 -300 3 -308t-136 -5t-139 9l-27 254q-141 -2 -151 -4q-5 -20 9 -332q13 -313 18 -401l4 -86q0 -4 102 0t115 0q6 -6 12 -142q6 -137 0 -151t-438 -15t-433 3t2 143t5 142l63 4q185 18 187 30l-17 805l-170 -2q-10 -252 -10 -260t-137 -2z" />
    <glyph glyph-name="tcommaaccent" unicode="&#x163;" horiz-adv-x="1032" 
d="M510 -109q88 0 150 -58t77 -140q96 -567 -282 -635q-13 27 -45 131l-9 31q125 10 166 112q31 78 -14 125q-20 23 -53 23q-104 0 -149 51q-44 52 -47 149t58 154q60 57 148 57zM197 707q0 2 -71 2t-75 4l4 301l148 16q23 238 22 242q25 16 117 32t172 21l80 6l12 -313
l258 4q14 -203 -12 -301l-270 -14q-23 -346 55 -347q55 0 129 50l22 14l148 -295q-8 -6 -22 -18q-49 -44 -156 -100q-108 -56 -236 -56t-189 59q-34 33 -58 64t-38 92q-15 61 -27 121t-13 231v185z" />
    <glyph glyph-name="Tcaron" unicode="&#x164;" horiz-adv-x="1429" 
d="M205 854q-137 6 -164 6q-6 0 -7 135q-3 402 19 428q21 21 652 41q630 19 632 14q2 -6 6 -306q5 -300 3 -308t-136 -5t-139 9l-27 254q-141 -2 -151 -4q-5 -20 9 -332q13 -313 18 -401l4 -86q0 -4 102 0t115 0q6 -6 12 -142q6 -137 0 -151t-438 -15t-433 3t2 143t5 142
l63 4q185 18 187 30l-17 805l-170 -2q-10 -252 -10 -260t-137 -2zM1098 1853q5 0 -178 -140t-204 -148q-12 -5 -329 211l-106 71q141 211 174 228l237 -160l236 174q34 -6 155 -213z" />
    <glyph glyph-name="tcaron" unicode="&#x165;" horiz-adv-x="1247" 
d="M197 707q0 2 -71 2t-75 4l4 301l148 16q23 238 22 242q25 16 117 32t172 21l80 6l12 -313l258 4q14 -203 -12 -301l-270 -14q-23 -346 55 -347q55 0 129 50l22 14l148 -295q-8 -6 -22 -18q-49 -44 -156 -100q-108 -56 -236 -56t-189 59q-34 33 -58 64t-38 92
q-15 61 -27 121t-13 231v185zM1032 1726q82 0 142 -60t73 -142q91 -561 -282 -633q-24 53 -43 133l-9 33q121 10 164 108q33 76 -6 119q-18 20 -49 21q-100 0 -142 52t-45 152q-3 101 56 159t141 58z" />
    <glyph glyph-name="Tbar" unicode="&#x166;" horiz-adv-x="1429" 
d="M205 895q-137 6 -164 6q-6 0 -7 125q-3 371 19 397q21 21 652 41q630 19 632 14t6 -285q5 -280 3 -288t-136 -5t-139 9l-27 213q-141 -2 -150 -4t11 -424q174 -4 174 -8t-7 -68t-9 -66q-2 -3 -152 -7q5 -150 11 -213l2 -33q0 -4 102 0t115 0q6 -6 12 -142q6 -137 0 -151
t-438 -15t-433 3t2 143t5 142l63 4q185 18 187 30l-4 226q-183 0 -189 3t0 80t12 80q74 -2 172 -2l-8 418l-170 -2q-10 -211 -10 -219t-137 -2z" />
    <glyph glyph-name="tbar" unicode="&#x167;" horiz-adv-x="1032" 
d="M637 360q55 0 129 50l22 14l148 -295q-8 -6 -22 -18q-49 -44 -156 -100q-108 -56 -211 -56t-160 30q-109 57 -146 187q-38 129 -42 328q-121 -4 -127 0t0 70t12 71h113v107q0 2 -71 2t-75 4l4 260l148 16q23 238 22 242q25 16 117 32t172 21l80 6l12 -313l258 4
q14 -162 -12 -260l-270 -14q-4 -47 -4 -107q166 0 165 -2q0 -107 5 -117q-4 -4 -166 -10q12 -152 55 -152z" />
    <glyph glyph-name="Utilde" unicode="&#x168;" horiz-adv-x="1505" 
d="M592 528q0 -56 43 -104q43 -47 130 -47t130 42t43 113l-2 594h-121l-4 306q59 20 479 14l135 -4q12 -283 13 -287l-119 -35q2 -510 2 -600q0 -258 -143 -402q-142 -144 -410 -144t-416 150q-147 151 -147 419l-4 571l-150 23l-12 280l649 21q2 -8 8 -152t0 -153l-110 -17
q6 -532 6 -588zM914 1870q40 0 61 74l6 24q203 -16 252 -49q1 -110 -57 -215q-77 -141 -230 -141q-96 1 -179 69t-128 68q-37 0 -53 -74q-6 -29 -11 -33q-12 -10 -262 41q0 8 -1 22q-7 96 45 202q73 142 261 145q102 1 232 -99q42 -34 64 -34z" />
    <glyph glyph-name="utilde" unicode="&#x169;" 
d="M1278 -4q0 -6 -289 -12h-96l-35 90q-49 -41 -128 -71t-161 -30q-166 0 -287 102q-139 115 -139 423l2 233l-86 8q-7 42 -18 150q-10 108 0 125l469 33q0 -137 2 -494q0 -207 145 -207q59 0 97 57q37 57 37 150l-3 145l-135 7l-16 290l508 39v-702q2 -2 64 -14
q61 -12 65 -13q4 0 4 -309zM486 1593q107 0 235 -99q43 -34 65 -34q39 0 60 74l6 25q203 -16 252 -50q0 -109 -57 -215q-78 -138 -230 -141q-94 0 -179 69q-84 69 -128 68q-37 0 -53 -73q-6 -29 -11 -33q-12 -10 -262 41q0 8 -1 21q-7 95 45 202q74 145 258 145z" />
    <glyph glyph-name="Umacron" unicode="&#x16a;" horiz-adv-x="1505" 
d="M592 528q0 -56 43 -104q43 -47 130 -47t130 42t43 113l-2 594h-121l-4 306q59 20 479 14l135 -4q12 -283 13 -287l-119 -35q2 -510 2 -600q0 -258 -143 -402q-142 -144 -410 -144t-416 150q-147 151 -147 419l-4 571l-150 23l-12 280l649 21q2 -8 8 -152t0 -153l-110 -17
q6 -532 6 -588zM1118 1612l-696 -17q-10 -1 -8 141t8 146q10 4 356 12t352 -2q4 -12 -2 -146t-10 -134z" />
    <glyph glyph-name="umacron" unicode="&#x16b;" 
d="M1278 -4q0 -6 -289 -12h-96l-35 90q-49 -41 -128 -71t-161 -30q-166 0 -287 102q-139 115 -139 423l2 233l-86 8q-7 42 -18 150q-10 108 0 125l469 33q0 -137 2 -494q0 -207 145 -207q59 0 97 57q37 57 37 150l-3 145l-135 7l-16 290l508 39v-702q2 -2 64 -14
q61 -12 65 -13q4 0 4 -309zM989 1202l-696 -16q-10 0 -8 141t8 146q10 4 356 12t352 -2q4 -13 -2 -147t-10 -134z" />
    <glyph glyph-name="Ubreve" unicode="&#x16c;" horiz-adv-x="1505" 
d="M592 528q0 -56 43 -104q43 -47 130 -47t130 42t43 113l-2 594h-121l-4 306q59 20 479 14l135 -4q12 -283 13 -287l-119 -35q2 -510 2 -600q0 -258 -143 -402q-142 -144 -410 -144t-416 150q-147 151 -147 419l-4 571l-150 23l-12 280l649 21q2 -8 8 -152t0 -153l-110 -17
q6 -532 6 -588zM764 1536q-324 0 -324 360q100 20 211 0q0 -53 36 -91t90 -38t89 35t35 88q25 12 108 16t95 -5q0 -140 -75 -247q-39 -54 -107 -86t-158 -32z" />
    <glyph glyph-name="ubreve" unicode="&#x16d;" 
d="M1278 -4q0 -6 -289 -12h-96l-35 90q-49 -41 -128 -71t-161 -30q-166 0 -287 102q-139 115 -139 423l2 233l-86 8q-7 42 -18 150q-10 108 0 125l469 33q0 -137 2 -494q0 -207 145 -207q59 0 97 57q37 57 37 150l-3 145l-135 7l-16 290l508 39v-702q2 -2 64 -14
q61 -12 65 -13q4 0 4 -309zM635 1147q-324 0 -324 360q100 20 211 0q0 -53 36 -91t90 -38t89 35t35 88q25 11 108 15t95 -5q0 -139 -75 -246q-38 -54 -106 -86t-159 -32z" />
    <glyph glyph-name="Uring" unicode="&#x16e;" horiz-adv-x="1505" 
d="M592 528q0 -56 43 -104q43 -47 130 -47t130 42t43 113l-2 594h-121l-4 306q59 20 479 14l135 -4q12 -283 13 -287l-119 -35q2 -510 2 -600q0 -258 -143 -402q-142 -144 -410 -144t-416 150q-147 151 -147 419l-4 571l-150 23l-12 280l649 21q2 -8 8 -152t0 -153l-110 -17
q6 -532 6 -588zM780 1702q80 0 80 90q0 39 -20 69t-60 29q-86 0 -86 -98q0 -42 28 -66t58 -24zM780 1530q-285 0 -284 280q0 137 78 202q79 65 202 65t198 -72t75 -193q0 -122 -68 -202t-201 -80z" />
    <glyph glyph-name="uring" unicode="&#x16f;" 
d="M1278 -4q0 -6 -289 -12h-96l-35 90q-49 -41 -128 -71t-161 -30q-166 0 -287 102q-139 115 -139 423l2 233l-86 8q-7 42 -18 150q-10 108 0 125l469 33q0 -137 2 -494q0 -207 145 -207q59 0 97 57q37 57 37 150l-3 145l-135 7l-16 290l508 39v-702q2 -2 64 -14
q61 -12 65 -13q4 0 4 -309zM651 1313q80 0 80 90q0 39 -20 69t-60 29q-86 0 -86 -98q-1 -41 27 -65t59 -25zM651 1141q-285 0 -284 280q0 137 78 202q79 65 202 65t198 -72t75 -193t-68 -201t-201 -81z" />
    <glyph glyph-name="Uhungarumlaut" unicode="&#x170;" horiz-adv-x="1505" 
d="M592 528q0 -56 43 -104q43 -47 130 -47t130 42t43 113l-2 594h-121l-4 306q59 20 479 14l135 -4q12 -283 13 -287l-119 -35q2 -510 2 -600q0 -258 -143 -402q-142 -144 -410 -144t-416 150q-147 151 -147 419l-4 571l-150 23l-12 280l649 21q2 -8 8 -152t0 -153l-110 -17
q6 -532 6 -588zM633 1561q-6 -1 -87 21t-86 27q-10 10 58 341l23 108q41 14 179 -12t138 -28t-112 -230q-112 -227 -113 -227zM1071 1563q-197 33 -200 40t69 241t76 239q-4 2 159 -22t156 -31z" />
    <glyph glyph-name="uhungarumlaut" unicode="&#x171;" 
d="M1278 -4q0 -6 -289 -12h-96l-35 90q-49 -41 -128 -71t-161 -30q-166 0 -287 102q-139 115 -139 423l2 233l-86 8q-7 42 -18 150q-10 108 0 125l469 33q0 -137 2 -494q0 -207 145 -207q59 0 97 57q37 57 37 150l-3 145l-135 7l-16 290l508 39v-702q2 -2 64 -14
q61 -12 65 -13q4 0 4 -309zM729 1608q0 -2 -112 -230t-113 -227q-6 -1 -87 21t-86 27q-11 11 58 341l23 109q45 16 248 -26q69 -13 69 -15zM942 1153q-197 33 -200 40t69 241t76 239q-4 2 159 -22t156 -31z" />
    <glyph glyph-name="Uogonek" unicode="&#x172;" horiz-adv-x="1505" 
d="M592 528q0 -56 43 -104q43 -47 130 -47t130 42t43 113l-2 594h-121l-4 306q59 20 479 14l135 -4q12 -283 13 -287l-119 -35q2 -510 2 -600q0 -213 -100 -351t-293 -179q-90 -115 -90 -228q0 -38 30 -66t62 -36l31 -8q6 -2 -20 -85t-30 -83q-58 -9 -188 34q-66 22 -113 80
t-47 144q0 141 119 235q-227 20 -352 169t-125 397l-4 571l-150 23l-12 280l649 21q2 -8 8 -152t0 -153l-110 -17q6 -532 6 -588z" />
    <glyph glyph-name="uogonek" unicode="&#x173;" 
d="M657 346q59 0 97 57q37 57 37 150l-3 145l-135 7l-16 290l508 39v-702q2 -2 64 -14q61 -12 65 -13q4 0 4 -309q0 -2 -61 -6q-90 -113 -91 -228q0 -38 31 -66t62 -36l30 -8q7 -2 -19 -85t-30 -83q-59 -10 -188 34q-66 22 -113 80t-47 144q0 147 129 242h-88l-35 90
q-49 -41 -128 -71t-161 -30q-166 0 -287 102q-139 115 -139 423l2 233l-86 8q-7 42 -18 150q-10 108 0 125l469 33q0 -137 2 -494q0 -207 145 -207z" />
    <glyph glyph-name="Wcircumflex" unicode="&#x174;" horiz-adv-x="1998" 
d="M1950 1421q6 1 6 -77v-232q-131 -10 -133 -10l-267 -1106q-282 -4 -288 -4t-134 271t-133 272q-4 -1 -66 -137t-124 -271l-61 -137q-240 0 -256 6q-10 4 -151 557q-140 553 -145 560q-4 7 -64 15t-81 9q-13 0 16 208l9 66q670 10 676 10q6 -1 4 -143t0 -158q0 -5 -50 -8
q-50 -2 -70 -3t-30 -1h-16q-2 0 26 -110t59 -220q32 -110 34 -106q2 2 47 114t90 222l45 112q199 0 215 -8q2 0 63 -118t122 -232l61 -111l84 457q-199 0 -211 6q-4 2 -6 150t1 152q3 5 728 5zM766 1561q-31 5 -121 154q-20 34 -35 59l-14 22q-12 0 182 143t201 146
q8 3 328 -211l106 -72q-141 -211 -174 -227l-238 160z" />
    <glyph glyph-name="wcircumflex" unicode="&#x175;" horiz-adv-x="1998" 
d="M1506 1036h215l203 -2h32q14 -112 14 -272l-123 -8q-203 -580 -327 -766q-166 -14 -252 6l-279 446l-248 -452q-186 -14 -272 6q-250 596 -281 764l-129 6q-7 39 -18 147q-12 109 -2 125l612 -6l11 -268l-109 -4l109 -250l245 434l187 -6l272 -432l98 248l-116 6l2 272
q6 6 156 6zM766 1159q-33 6 -121 155q-20 34 -35 58l-14 23q-12 0 182 143t202 146q8 2 327 -211l106 -72q-141 -211 -174 -227l-238 159z" />
    <glyph glyph-name="Ycircumflex" unicode="&#x176;" horiz-adv-x="1437" 
d="M978 283q60 0 66 -6q4 -6 5 -273q1 -6 -317 -13t-322 -5t-7 141q-2 139 0 141q27 0 83 10q57 10 57 11v395q0 4 -77 108t-155 205q-78 100 -80 99q-2 -2 -80 8q-77 10 -77 12q0 311 2 320l602 -11l22 -280q-2 -4 -98 -4l35 -39q35 -41 72 -82l34 -41q8 10 37 42t64 80
q36 48 35 50q-2 2 -82 2q-6 2 -4 142q2 141 4 143t276 -3q275 -5 285 -9t19 -140q9 -135 4 -140t-124 -5l-346 -463q7 -362 7 -378t60 -17zM492 1561q-31 5 -121 154q-20 34 -35 59l-14 22q-9 0 86 72q96 72 191 143q95 72 105 74q9 3 328 -211l107 -72q-141 -211 -174 -227
l-238 160z" />
    <glyph glyph-name="ycircumflex" unicode="&#x177;" horiz-adv-x="1419" 
d="M205 -352q-9 0 143 238t148 239q-287 471 -318 639l-112 6q-10 56 -20 153q-11 97 -1 113l612 2l11 -270l-115 -4l156 -289l147 283l-102 6l-4 266q11 11 529 -6l58 -2q2 -17 9 -111q6 -94 6 -151l-113 -6q-555 -1094 -680 -1280q-21 3 -89 23q-216 61 -265 151z
M459 1159q-33 6 -121 155q-20 34 -35 58l-14 23q-9 0 182 143t200 146q9 2 328 -211l107 -72q-141 -211 -174 -227l-238 159z" />
    <glyph glyph-name="Ydieresis" unicode="&#x178;" horiz-adv-x="1437" 
d="M978 283q60 0 66 -6q4 -6 5 -273q1 -6 -317 -13t-322 -5t-7 141q-2 139 0 141q27 0 83 10q57 10 57 11v395q0 4 -77 108t-155 205q-78 100 -80 99q-2 -2 -80 8q-77 10 -77 12v99l2 168v53l602 -11l22 -280q-2 -4 -98 -4l35 -39q35 -41 72 -82l34 -41q8 10 37 42t64 80
q36 48 35 50q-2 2 -82 2q-6 2 -4 142q2 141 4 143t276 -3q275 -5 285 -9t19 -140q9 -135 4 -140t-124 -5l-346 -463q7 -362 7 -378t60 -17zM659 1771q0 -83 -44 -143t-140 -61q-96 0 -150 53q-53 53 -57 146q-4 94 51 150t135 56t143 -59q62 -59 62 -142zM991 1972
q79 0 141 -59t62 -142t-44 -143t-140 -61q-96 0 -151 53q-54 53 -57 146q-3 94 53 150t136 56z" />
    <glyph glyph-name="Zacute" unicode="&#x179;" horiz-adv-x="1314" 
d="M129 10q-2 0 -14 81t-25 163q-12 82 -10 84q0 2 344 406t334 403q-266 0 -283 -10l-41 -181q-260 16 -280 27q-12 10 -13 229q0 219 4 224q1067 2 1067 -6q0 -2 21 -148t14 -149q-15 -5 -329 -399t-312 -394q18 0 176 8t160 11t18 114t21 113q39 0 145 -6t115 -19
q11 -55 -4 -414l-6 -137h-1102zM1020 1745q-586 -195 -599 -188t-44 69t-53 119l-23 59l594 238q19 -5 74 -150t51 -147z" />
    <glyph glyph-name="zacute" unicode="&#x17a;" horiz-adv-x="1173" 
d="M782 420q297 0 310 -19q9 -29 -2 -299l-7 -100h-968q-2 0 -28 135t-25 137t271 255t265 253q-10 0 -100 10t-92 7l-23 -131q-289 20 -305 28q-10 24 0 254l6 86q940 0 940 -6l41 -266q-2 -2 -55 -49t-127 -116t-148 -137t-125 -114l-49 -47l33 -2l178 -2q0 7 4 65t6 58z
M936 1356q-586 -195 -599 -188q-13 6 -44 68t-53 120l-23 59l594 238q19 -5 74 -150t51 -147z" />
    <glyph glyph-name="Zdotaccent" unicode="&#x17b;" horiz-adv-x="1314" 
d="M129 10q-2 0 -14 81t-25 163q-12 82 -10 84q0 2 344 406t334 403q-266 0 -283 -10l-41 -181q-260 16 -280 27q-12 10 -13 229q0 219 4 224q1067 2 1067 -6q0 -2 21 -148t14 -149q-15 -5 -329 -399t-312 -394q18 0 176 8t160 11t18 114t21 113q39 0 145 -6t115 -19
q11 -55 -4 -414l-6 -137h-1102zM655 1972q81 0 143 -59t62 -142t-44 -143t-140 -61q-96 0 -151 53q-54 53 -57 146q-3 94 52 150t135 56z" />
    <glyph glyph-name="zdotaccent" unicode="&#x17c;" horiz-adv-x="1173" 
d="M782 420q297 0 310 -19q9 -29 -2 -299l-7 -100h-968q-2 0 -28 135t-25 137t271 255t265 253q-10 0 -100 10t-92 7l-23 -131q-289 20 -305 28q-10 24 0 254l6 86q940 0 940 -6l41 -266q-2 -2 -55 -49t-127 -116t-148 -137t-125 -114l-49 -47l33 -2l178 -2q0 7 4 65t6 58z
M776 1363q0 -83 -44 -143t-140 -61q-96 0 -151 53q-54 52 -57 146t52 150t135 56q81 0 143 -58q62 -60 62 -143z" />
    <glyph glyph-name="Zcaron" unicode="&#x17d;" horiz-adv-x="1314" 
d="M129 10q-2 0 -14 81t-25 163q-12 82 -10 84q0 2 344 406t334 403q-266 0 -283 -10l-41 -181q-260 16 -280 27q-12 10 -13 229q0 219 4 224q1067 2 1067 -6q0 -2 21 -148t14 -149q-15 -5 -329 -399t-312 -394q18 0 176 8t160 11t18 114t21 113q39 0 145 -6t115 -19
q11 -55 -4 -414l-6 -137h-1102zM1069 1853q5 0 -178 -140t-204 -148q-12 -5 -329 211l-106 71q141 211 174 228l238 -160l235 174q33 -6 121 -155q20 -34 35 -58z" />
    <glyph glyph-name="zcaron" unicode="&#x17e;" horiz-adv-x="1173" 
d="M782 420q297 0 310 -19q9 -29 -2 -299l-7 -100h-968q-2 0 -28 135t-25 137t271 255t265 253q-10 0 -100 10t-92 7l-23 -131q-289 20 -305 28q-10 24 0 254l6 86q940 0 940 -6l41 -266q-2 -2 -55 -49t-127 -116t-148 -137t-125 -114l-49 -47l33 -2l178 -2q0 7 4 65t6 58z
M985 1452q7 0 -178 -141t-204 -148q-9 -4 -329 211l-106 72q141 211 174 227l238 -160l235 175q33 -6 121 -155q20 -34 35 -58z" />
    <glyph glyph-name="florin" unicode="&#x192;" horiz-adv-x="919" 
d="M34 -113q50 1 68 19t30 82t41 307q29 242 50 401l-157 -2q30 297 32 300t43 4t81 1t40 2q33 213 96 322q104 188 301 188q172 0 295 -86q31 -20 45 -32l17 -15l-137 -270q-74 47 -148 47q-39 0 -65 -39t-31 -76l-6 -39l243 -14q11 -102 -14 -246l-10 -55l-252 4
q-55 -539 -86 -753q-61 -426 -406 -426q-98 -1 -189 33t-132 67l-43 33q10 55 54 128t83 117l37 45q70 -47 120 -47z" />
    <glyph glyph-name="Aringacute" unicode="&#x1fa;" horiz-adv-x="1435" 
d="M582 698l182 11l-102 266zM1376 293v-301l-573 -15q-15 9 -27 149t-2 144l105 6l-56 166l-276 4l-27 -135l139 -18l5 -45q12 -162 12 -194v-50l-594 -29q-23 51 -29 234v61l135 33q83 454 211 961l43 170q90 22 324 -4l92 -9l399 -1128h119zM645 1675q80 0 80 76
q0 33 -20 57q-21 24 -63 25q-42 0 -62 -24q-20 -25 -20 -59t26 -54q28 -20 59 -21zM645 1530q-285 0 -285 235q0 90 50 146l-64 141l594 238q8 -2 62 -115t42 -121l-268 -88q137 -53 137 -201q0 -98 -67 -167q-68 -68 -201 -68z" />
    <glyph glyph-name="aringacute" unicode="&#x1fb;" 
d="M572 328q66 0 112 52q45 52 45 136t-44 142q-45 58 -115 58t-116 -50t-46 -140t49 -144t115 -54zM1274 -2q-35 0 -250 5t-215 9l-21 105q-4 -5 -10 -15t-32 -32q-101 -87 -254 -88q-153 0 -290 113q-71 58 -114 171t-43 257q0 382 298 484q156 53 314 0q76 -26 113 -53
l37 -24v102q272 10 434 4q0 -4 3 -72t5 -135l4 -65q-5 0 -77 -16t-74 -19l4 -432q170 0 173 -11q3 -12 2 -150t-7 -138zM707 1286q80 0 79 76q0 34 -20 58t-62 24t-62 -24t-21 -58t27 -56q28 -20 59 -20zM707 1141q-285 0 -285 235q0 90 49 146l-63 141l593 238q8 -3 36 -61
q29 -58 51 -116t18 -59l-268 -88q137 -53 137 -201q1 -98 -67 -166t-201 -69z" />
    <glyph glyph-name="AEacute" unicode="&#x1fc;" horiz-adv-x="1976" 
d="M729 717l199 -8v401zM1860 977q0 -4 -140 -6t-151 -1q-17 2 -23 77t-7 78t-115 5t-118 -2t-1 -118q2 -114 5 -116q3 -1 106 -5t105 -7q1 -3 3 -33t4 -70t3 -83q1 -42 2 -68t-1 -30q-32 0 -130 -7q-97 -7 -100 -11t-4 -267q19 -10 134 -1t114 12l58 217q0 9 166 -13
t167 -24q0 -10 -19 -263t-24 -255t-484 -8q-480 -6 -597 16q0 283 10 305q10 10 115 10l-4 133l-305 4l-47 -135l98 -18q16 -143 16 -207v-82l-614 -29q-23 51 -29 234v61l135 33q190 412 358 751q167 339 210 392q4 12 817 12l272 -2q19 -28 22 -82q11 -191 -7 -379v-18z
M1556 1745q-586 -195 -599 -188t-44 69t-53 119l-22 59l594 238q19 -5 74 -150t50 -147z" />
    <glyph glyph-name="aeacute" unicode="&#x1fd;" horiz-adv-x="1685" 
d="M420 313q8 -49 79 -46t126 50q8 74 0 121q-81 0 -147 -34t-58 -91zM1024 584l250 153q-6 17 -33 35t-55 19q-100 -1 -146 -69t-16 -138zM39 301q0 295 371 341q88 11 180 3q4 39 -32 69q-60 50 -223 16q-62 -13 -99 -25l-37 -15q-44 98 -84 228l-13 47q14 10 41 26
t121 44t204 28t207 -41t140 -98q133 145 367 145q168 0 306 -110t144 -189l-55 -209l-395 -217q31 -37 362 -37q-4 -131 -35 -278l-10 -52q-420 -31 -637 150q-69 -64 -206 -109t-242 -45q-188 0 -282 89q-93 89 -93 239zM1188 1356q-586 -195 -599 -188q-13 6 -44 68
t-53 120l-23 59l594 238q19 -5 74 -150t51 -147z" />
    <glyph glyph-name="Oslashacute" unicode="&#x1fe;" horiz-adv-x="1488" 
d="M762 373q106 0 173 81t66 259q0 100 -22 186l-297 -514q39 -12 80 -12zM545 487l319 574q-49 27 -104 26q-274 0 -275 -376q1 -138 60 -224zM770 1468q156 0 289 -61l63 106q14 4 56 -15t74 -41q34 -22 34 -23l-76 -131q219 -199 220 -576q0 -306 -158 -527
q-78 -110 -208 -173t-296 -63t-301 48l-76 -133l-112 43q-31 15 -30 21t77 143q-264 188 -265 645q0 197 55 343q54 146 153 231q192 163 501 163zM1112 1745q-586 -195 -599 -188t-44 69t-53 119l-23 59l594 238q17 -4 74 -150q56 -145 51 -147z" />
    <glyph glyph-name="oslashacute" unicode="&#x1ff;" horiz-adv-x="1124" 
d="M561 279q76 0 124 59t48 172q0 63 -20 129l-205 -354q25 -6 53 -6zM588 725q-106 0 -154 -73t-49 -181q1 -49 21 -106l200 358q-6 2 -18 2zM41 516q0 279 146 407t384 128q104 0 197 -35q63 111 72 119q8 1 41 -15t61 -35l29 -16l-74 -129q176 -145 176 -428
q0 -231 -127 -392t-373 -161q-123 0 -223 35l-76 -131l-114 57q0 6 71 135q-190 137 -190 461zM915 1356q-586 -195 -599 -188q-13 6 -44 68t-53 120l-22 59l594 238q16 -4 73 -150q56 -145 51 -147z" />
    <glyph glyph-name="Scommaaccent" unicode="&#x218;" horiz-adv-x="1161" 
d="M564 -109q88 0 150 -58t77 -140q96 -567 -283 -635q-13 27 -45 131l-8 31q125 10 166 112q31 78 -15 125q-20 23 -53 23q-104 0 -149 51q-44 52 -47 149t59 154t148 57zM585 1159q-46 1 -83 -23t-37 -67t37 -72t130 -75q92 -46 156 -82q241 -140 293 -295q25 -72 25 -162
q0 -170 -124 -288t-282 -118q-217 0 -317 115q-2 -18 -4 -51t-4 -53l-2 -23l-310 19q-4 45 -4 520q213 47 322 31q27 -97 80 -155t103 -58t83 24t33 64q0 75 -56 117t-198 110q-86 45 -136 79q-150 102 -195 230q-28 80 -27 184q0 158 120 264q121 105 322 105
q150 0 227 -82l15 99q213 8 313 -35q5 -3 -9 -222q-15 -219 -16 -243q0 -29 -239 -26q-80 1 -80 5q-6 82 -48 123t-88 41z" />
    <glyph glyph-name="scommaaccent" unicode="&#x219;" horiz-adv-x="1024" 
d="M490 -109q88 0 150 -58t77 -140q96 -567 -283 -635q-8 16 -21 57t-24 74l-8 31q125 10 166 112q31 78 -15 125q-20 23 -53 23q-104 0 -148 52t-47 148q-3 97 58 154q60 57 148 57zM438 264q76 0 76 53q0 39 -28 57q-56 35 -142 66q-195 89 -242 209q-23 59 -22 135
q0 115 101 201t252 86t218 -59l13 71q205 6 292 -24q6 -3 -7 -178q-13 -174 -13 -187q-15 -12 -148 -3t-133 14q-4 45 -37 67t-69 23q-63 0 -64 -52q0 -18 28 -35q27 -17 93 -44t94 -41q106 -49 182 -141t74 -215q0 -124 -100 -209t-238 -85q-193 0 -266 68l-10 -84l-279 23
q-4 31 -4 393q61 10 151 12t103 -2q19 -55 55 -87t70 -32z" />
    <glyph glyph-name="uni021A" unicode="&#x21a;" horiz-adv-x="1433" 
d="M674 -109q88 0 150 -58t77 -140q96 -567 -283 -635q-8 16 -21 57t-24 74l-8 31q125 10 166 112q31 78 -14 125q-20 23 -53 23q-104 0 -149 51q-44 52 -47 149t58 154q60 57 148 57zM207 854q-137 6 -164 6q-6 0 -7 135q-3 402 19 428q21 21 652 41q630 19 632 14
q3 -6 7 -306t2 -308t-136 -5t-139 9l-26 254q-141 -2 -152 -4q-5 -20 9 -332q13 -313 18 -401l4 -86q0 -4 102 0t115 0q6 -6 12 -142q6 -137 0 -151t-438 -15t-433 3t2 143t5 142l63 4q185 18 187 30l-17 805l-170 -2q-10 -252 -10 -260t-137 -2z" />
    <glyph glyph-name="uni021B" unicode="&#x21b;" horiz-adv-x="1032" 
d="M510 -109q88 0 150 -58t77 -140q96 -567 -282 -635q-13 27 -45 131l-9 31q125 10 166 112q31 78 -14 125q-20 23 -53 23q-104 0 -149 51q-44 52 -47 149t58 154q60 57 148 57zM197 707q0 2 -71 2t-75 4l4 301l148 16q23 238 22 242q25 16 117 32t172 21l80 6l12 -313
l258 4q14 -203 -12 -301l-270 -14q-23 -346 55 -347q55 0 129 50l22 14l148 -295q-8 -6 -22 -18q-49 -44 -156 -100q-108 -56 -236 -56t-189 59q-34 33 -58 64t-38 92q-15 61 -27 121t-13 231v185z" />
    <glyph glyph-name="dotlessj" unicode="&#x237;" horiz-adv-x="677" 
d="M172 -143q86 0 86 132t-20 350t-39 298l-138 18l-10 342q492 4 500 -10q27 -51 51 -393t25 -500q0 -158 -6 -218q-6 -58 -30 -132t-64 -127q-41 -53 -113 -91t-170 -38t-188 33t-132 65l-41 35l168 277q43 -41 121 -41z" />
    <glyph glyph-name="circumflex" unicode="&#x2c6;" horiz-adv-x="1024" 
d="M274 1159q-32 5 -120 155q-20 34 -35 58l-15 23q-12 0 182 143t202 146q8 2 327 -211l107 -72q-141 -211 -174 -227l-238 159z" />
    <glyph glyph-name="caron" unicode="&#x2c7;" horiz-adv-x="1024" 
d="M920 1452q7 0 -178 -141t-204 -148q-9 -4 -329 211l-107 72q141 211 174 227l238 -160l236 175q32 -5 120 -155q20 -34 35 -58z" />
    <glyph glyph-name="breve" unicode="&#x2d8;" horiz-adv-x="868" 
d="M426 1147q-324 0 -324 360q100 20 211 0q0 -53 36 -91t90 -38t89 35t35 88q25 11 108 15t95 -5q0 -142 -75 -246q-39 -54 -107 -86t-158 -32z" />
    <glyph glyph-name="dotaccent" unicode="&#x2d9;" horiz-adv-x="600" 
d="M313 1159q-96 0 -150 53q-53 52 -57 146t52 150t135 56q80 0 142 -58q63 -60 63 -143t-44 -143t-141 -61z" />
    <glyph glyph-name="ring" unicode="&#x2da;" horiz-adv-x="757" 
d="M387 1313q80 0 80 90q-1 39 -21 69t-59 29q-86 0 -86 -98q-1 -41 27 -65t59 -25zM387 1141q-285 0 -285 280q0 137 79 202t202 65t198 -72t75 -193t-68 -201t-201 -81z" />
    <glyph glyph-name="ogonek" unicode="&#x2db;" horiz-adv-x="604" 
d="M102 -274q0 125 60 193q60 67 102 85l19 10q37 10 113 12t91 -12q-42 -49 -76 -122t-34 -121q0 -47 31 -75t61 -36l31 -8q6 -2 -20 -85t-29 -83q-59 -9 -189 34q-66 22 -113 80t-47 128z" />
    <glyph glyph-name="tilde" unicode="&#x2dc;" horiz-adv-x="1126" 
d="M406 1593q109 0 235 -99q43 -34 65 -34q38 0 60 74l6 25q203 -16 252 -50q0 -109 -57 -215q-78 -138 -230 -141q-94 0 -179 69q-84 69 -128 68q-37 0 -53 -73q-6 -29 -10 -33q-13 -10 -263 41q0 8 -1 21q-7 95 45 202q74 145 258 145z" />
    <glyph glyph-name="hungarumlaut" unicode="&#x2dd;" horiz-adv-x="1081" 
d="M627 1608q0 -2 -112 -230t-116 -227q-4 -1 -85 21t-89 30t62 338l22 109q46 16 249 -26q69 -13 69 -15zM840 1153q-197 33 -200 40t69 241t75 239q-4 2 159 -22t157 -31z" />
    <glyph glyph-name="Delta" unicode="&#x394;" horiz-adv-x="1511" 
d="M901 255q0 5 -63 130t-129 255t-70 140l-45 -131q-135 -392 -131 -399q6 -4 222 -2t216 7zM1152 -22q-734 -18 -998 15q-72 9 -71 17t283 790t283 783l68 4q-1 -4 363 -780t347 -807q-9 -13 -275 -22z" />
    <glyph glyph-name="Omega" unicode="&#x3a9;" horiz-adv-x="1644" 
d="M834 1485q362 0 544 -177t183 -466q0 -164 -79 -301t-134 -189l-25 -24l231 4l5 -314q-5 -12 -317 -15t-318 1t-18 187q-11 183 -3 187q35 15 93 65q59 51 98 96q40 45 70 111t30 134q0 150 -96 242t-264 92t-263 -110q-96 -110 -96 -230q0 -78 31 -150t97 -140
q66 -69 142 -111l-18 -381l-608 -14q-31 31 -37 243v72l233 16q-18 18 -62 81q-142 204 -140 413q0 319 212 499t509 179z" />
    <glyph glyph-name="pi" unicode="&#x3c0;" horiz-adv-x="1460" 
d="M1115 -35q-77 0 -134 31t-88 74q-72 100 -72 391l6 209l-114 2q4 -664 -2 -670t-101 -6l-264 4q-2 442 10 678q-115 0 -166 -29q-54 103 -96 269l-14 55q78 45 323 59q125 8 523 1t411 -19q9 -33 13 -137t-7 -207l-180 -8q-8 -76 -4 -200t42 -124t77 9q38 9 39 11
q43 -80 88 -223l14 -49q-51 -45 -139 -83t-165 -38z" />
    <glyph glyph-name="Wgrave" unicode="&#x1e80;" horiz-adv-x="1998" 
d="M1950 1421q6 1 6 -77v-232q-131 -10 -133 -10l-267 -1106q-282 -4 -288 -4t-134 271t-133 272q-4 -1 -66 -137t-124 -271l-61 -137q-240 0 -256 6q-10 4 -151 557q-140 553 -145 560q-4 7 -64 15t-81 9q-13 0 16 208l9 66q670 10 676 10q6 -1 4 -143t0 -158q0 -5 -50 -8
q-50 -2 -70 -3t-30 -1h-16q-2 0 26 -110t59 -220q32 -110 34 -106q2 2 47 114t90 222l45 112q199 0 215 -8q2 0 63 -118t122 -232l61 -111l84 457q-199 0 -211 6q-4 2 -6 150t1 152q3 5 728 5zM682 1722q-4 2 48 142t69 145q6 3 442 -151l145 -52q-74 -238 -106 -254
q-6 -2 -290 80t-308 90z" />
    <glyph glyph-name="wgrave" unicode="&#x1e81;" horiz-adv-x="1998" 
d="M1506 1036h215l203 -2h32q14 -112 14 -272l-123 -8q-203 -580 -327 -766q-166 -14 -252 6l-279 446l-248 -452q-186 -14 -272 6q-250 596 -281 764l-129 6q-7 39 -18 147q-12 109 -2 125l612 -6l11 -268l-109 -4l109 -250l245 434l187 -6l272 -432l98 248l-116 6l2 272
q6 6 156 6zM657 1356q-9 4 50 145q59 140 67 142t443 -152l145 -51q-74 -238 -107 -254q-7 -2 -291 80t-307 90z" />
    <glyph glyph-name="Wacute" unicode="&#x1e82;" horiz-adv-x="1998" 
d="M1950 1421q6 1 6 -77v-232q-131 -10 -133 -10l-267 -1106q-282 -4 -288 -4t-134 271t-133 272q-4 -1 -66 -137t-124 -271l-61 -137q-240 0 -256 6q-10 4 -151 557q-140 553 -145 560q-4 7 -64 15t-81 9q-13 0 16 208l9 66q670 10 676 10q6 -1 4 -143t0 -158q0 -5 -50 -8
q-50 -2 -70 -3t-30 -1h-16q-2 0 26 -110t59 -220q32 -110 34 -106q2 2 47 114t90 222l45 112q199 0 215 -8q2 0 63 -118t122 -232l61 -111l84 457q-199 0 -211 6q-4 2 -6 150t1 152q3 5 728 5zM1362 1745q-586 -195 -599 -188t-44 69t-53 119l-23 59l594 238q19 -5 74 -150
t51 -147z" />
    <glyph glyph-name="wacute" unicode="&#x1e83;" horiz-adv-x="1998" 
d="M1506 1036h215l203 -2h32q14 -112 14 -272l-123 -8q-203 -580 -327 -766q-166 -14 -252 6l-279 446l-248 -452q-186 -14 -272 6q-250 596 -281 764l-129 6q-7 39 -18 147q-12 109 -2 125l612 -6l11 -268l-109 -4l109 -250l245 434l187 -6l272 -432l98 248l-116 6l2 272
q6 6 156 6zM1362 1356q-586 -195 -599 -188q-13 6 -44 68t-53 120l-23 59l594 238q19 -5 74 -150t51 -147z" />
    <glyph glyph-name="Wdieresis" unicode="&#x1e84;" horiz-adv-x="1998" 
d="M1950 1421q6 1 6 -77v-232q-131 -10 -133 -10l-267 -1106q-282 -4 -288 -4t-134 271t-133 272q-4 -1 -66 -137t-124 -271l-61 -137q-240 0 -256 6q-10 4 -151 557q-140 553 -145 560q-4 7 -64 15t-81 9q-13 0 16 208l9 66q670 10 676 10q6 -1 4 -143t0 -158q0 -5 -50 -8
q-50 -2 -70 -3t-30 -1h-16q-2 0 26 -110t59 -220q32 -110 34 -106q2 2 47 114t90 222l45 112q199 0 215 -8q2 0 63 -118t122 -232l61 -111l84 457q-199 0 -211 6q-4 2 -6 150t1 152q3 5 728 5zM750 1567q-96 0 -151 53q-54 53 -57 146q-3 94 52 150t135 56t142 -59
q63 -59 63 -142t-44 -143t-140 -61zM1468 1771q0 -83 -44 -143t-140 -61q-96 0 -150 53t-58 146q-4 94 53 150t137 56t141 -59t61 -142z" />
    <glyph glyph-name="wdieresis" unicode="&#x1e85;" horiz-adv-x="1998" 
d="M1506 1036h215l203 -2h32q14 -112 14 -272l-123 -8q-203 -580 -327 -766q-166 -14 -252 6l-279 446l-248 -452q-186 -14 -272 6q-250 596 -281 764l-129 6q-7 39 -18 147q-12 109 -2 125l612 -6l11 -268l-109 -4l109 -250l245 434l187 -6l272 -432l98 248l-116 6l2 272
q6 6 156 6zM750 1159q-96 0 -151 53q-54 52 -57 146t52 150t135 56t142 -58q63 -60 63 -143t-44 -143t-140 -61zM1468 1363q0 -83 -44 -143t-140 -61q-96 0 -150 53q-54 52 -58 146t53 150t137 56t141 -58q61 -60 61 -143z" />
    <glyph glyph-name="Ygrave" unicode="&#x1ef2;" horiz-adv-x="1437" 
d="M978 283q60 0 66 -6q4 -6 5 -273q1 -6 -317 -13t-322 -5t-7 141q-2 139 0 141q27 0 83 10q57 10 57 11v395q0 4 -77 108t-155 205q-78 100 -80 99q-2 -2 -80 8q-77 10 -77 12q0 303 2 320l602 -11l22 -280q-2 -4 -98 -4l35 -39q35 -41 72 -82l34 -41q8 10 37 42t64 80
q36 48 35 50q-2 2 -82 2q-6 2 -4 142q2 141 4 143t276 -3q275 -5 285 -9t19 -140q9 -135 4 -140t-124 -5l-346 -463q7 -362 7 -378t60 -17zM408 1722q-11 5 49 145q59 140 67 143t443 -152l145 -52q-74 -238 -106 -254q-6 -2 -290 80t-308 90z" />
    <glyph glyph-name="ygrave" unicode="&#x1ef3;" horiz-adv-x="1419" 
d="M205 -352q-9 0 143 238t148 239q-287 471 -318 639l-112 6q-10 56 -20 153q-11 97 -1 113l612 2l11 -270l-115 -4l156 -289l147 283l-102 6l-4 266q11 11 529 -6l58 -2q2 -17 9 -111q6 -94 6 -151l-113 -6q-555 -1094 -680 -1280q-21 3 -89 23q-216 61 -265 151z
M350 1356q-9 4 50 145q59 140 67 142t442 -152l146 -51q-74 -238 -107 -254q-6 -2 -290 80t-308 90z" />
    <glyph glyph-name="endash" unicode="&#x2013;" horiz-adv-x="1130" 
d="M979 410l-868 -23q-10 0 -9 145q2 145 9 150q10 4 444 15t437 0t-3 -149t-10 -138z" />
    <glyph glyph-name="emdash" unicode="&#x2014;" horiz-adv-x="1593" 
d="M1450 430l-1339 -22q-10 0 -9 135q2 135 9 139q10 4 680 15q671 11 673 0t-4 -139t-10 -128z" />
    <glyph glyph-name="quoteleft" unicode="&#x2018;" horiz-adv-x="663" 
d="M349 891q-87 0 -149 58t-77 141q-94 555 297 624q13 -26 43 -129l10 -33q-125 -10 -172 -108q-35 -74 6 -119q20 -23 53 -22q104 1 148 -51t48 -149q3 -97 -58 -155q-62 -57 -149 -57z" />
    <glyph glyph-name="quoteright" unicode="&#x2019;" horiz-adv-x="624" 
d="M301 1726q82 0 142 -60t73 -142q90 -561 -283 -633q-17 39 -43 133l-8 33q121 10 164 108q33 76 -6 119q-18 20 -49 21q-100 0 -143 52q-42 52 -45 152q-3 101 57 159t141 58z" />
    <glyph glyph-name="quotesinglbase" unicode="&#x201a;" horiz-adv-x="630" 
d="M305 -16q-100 0 -142 52t-45 153q-3 100 56 158q59 59 141 59q83 0 143 -60t72 -143q48 -291 -20 -464t-248 -208q-17 39 -43 133l-8 33q115 10 156 117q33 88 -9 143q-20 27 -53 27z" />
    <glyph glyph-name="quotedblleft" unicode="&#x201c;" horiz-adv-x="1206" 
d="M390 891q-87 0 -149 58t-77 141q-94 555 297 624q13 -26 43 -129l10 -33q-125 -10 -172 -108q-35 -74 6 -119q20 -23 53 -22q105 1 149 -51t47 -149t-58 -155q-62 -57 -149 -57zM915 903q-82 1 -142 61t-73 142q-90 561 283 633q22 -50 43 -133l8 -33q-121 -10 -164 -109
q-33 -76 7 -118q18 -20 49 -21q100 0 142 -52q42 -53 45 -153t-57 -158t-141 -59z" />
    <glyph glyph-name="quotedblright" unicode="&#x201d;" horiz-adv-x="1206" 
d="M301 1726q82 0 142 -60t73 -142q90 -561 -283 -633q-17 39 -43 133l-8 33q121 10 164 108q33 76 -6 119q-18 20 -49 21q-100 0 -143 52q-42 52 -45 152q-3 101 57 159t141 58zM756 915q-18 37 -43 129l-11 33q125 10 172 109q35 74 -6 119q-20 23 -53 22q-104 0 -148 51
q-43 50 -47 148t58 155t148 57q88 0 150 -58t77 -140q94 -555 -297 -625z" />
    <glyph glyph-name="quotedblbase" unicode="&#x201e;" horiz-adv-x="1206" 
d="M840 389q88 0 150 -58t77 -141q96 -567 -283 -634q-13 26 -43 129l-10 32q125 10 166 113q31 78 -14 125q-20 23 -54 22q-104 -1 -148 51t-47 149t58 155q60 58 148 57zM305 -16q-100 0 -142 52t-45 153q-3 100 56 158q59 59 141 59q83 0 143 -60t72 -143
q48 -291 -20 -464t-248 -208q-17 39 -43 133l-8 33q115 10 156 117q33 88 -9 143q-20 27 -53 27z" />
    <glyph glyph-name="dagger" unicode="&#x2020;" horiz-adv-x="1267" 
d="M803 1442v-303q0 -2 181 3t181 -7q0 -47 -5 -174t-11 -127q-350 0 -365 -9q-8 -4 -14 -366l-2 -121q14 -8 34 -22t55 -61q34 -46 34 -93t-42 -90t-83 -62l-43 -18l-55 -529q-100 -1 -110 3t-28 240q-16 236 -16 261q0 2 -40 34t-80 79t-42 88q-4 82 117 178q7 42 -8 363
l-6 125q-313 2 -323 19t-22 155q-13 138 -1 141l350 8q2 -2 4 66q2 67 5 139t5 76t84 8t164 3t82 -7z" />
    <glyph glyph-name="daggerdbl" unicode="&#x2021;" horiz-adv-x="1267" 
d="M109 70q350 0 364 8q4 0 12 94t9 141q-113 76 -113 168q0 72 102 133q-4 103 -22 189l-6 31q-313 2 -323 19t-22 155q-13 138 -1 141l350 8q2 -2 4 66q2 67 5 139t5 76t84 8t164 3t82 -7v-303q0 -2 181 3t181 -7q0 -47 -5 -174t-11 -127q-350 0 -365 -9q-8 -8 -17 -73
q-9 -64 -9 -109q131 -103 133 -161t-29 -97t-46 -51t-23 -18l-25 -19q-8 -8 16 -172l9 -55q311 -2 320 -20t16 -147q7 -130 -5 -134l-325 -9q-2 2 -6 -136t-8 -143q-3 -5 -83 -9t-158 -3t-79 7l-10 303q0 2 -176 -3t-177 7q1 287 7 287z" />
    <glyph glyph-name="bullet" unicode="&#x2022;" horiz-adv-x="651" 
d="M346 489q-285 0 -285 281q0 137 79 202q79 64 202 64t198 -72q74 -72 74 -192q0 -121 -68 -202t-200 -81z" />
    <glyph glyph-name="ellipsis" unicode="&#x2026;" horiz-adv-x="1951" 
d="M336 -16q-100 0 -158 55q-57 56 -60 153t56 155q59 59 143 59t149 -62q64 -62 64 -147t-47 -149t-147 -64zM1192 197q0 -85 -47 -149t-147 -64t-158 56t-61 152q-3 97 57 155q60 59 143 59q85 0 149 -62t64 -147zM1833 197q0 -85 -47 -149q-48 -64 -148 -64t-158 56
t-60 152q-4 97 56 155q60 59 144 59t148 -62t65 -147z" />
    <glyph glyph-name="perthousand" unicode="&#x2030;" horiz-adv-x="2232" 
d="M1188 252q0 -43 33 -66t75 -22q88 0 88 93t-92 93q-104 0 -104 -98zM1692 252q0 -43 32 -66t76 -22q88 0 88 93t-92 93q-104 0 -104 -98zM1288 588q118 0 242 -117q112 117 268 117t254 -85t98 -231t-91 -243q-91 -96 -265 -97q-74 0 -150 34t-114 75q-39 -41 -105 -75
t-135 -34q-174 0 -276 82t-101 250q-1 168 103 246t272 78zM338 1073q0 -69 82 -69t82 69q0 78 -82 78t-82 -78zM424 782q-158 0 -250 73t-92 221t94 217t242 69t238 -76q89 -76 89 -204q1 -128 -81 -214t-240 -86zM1225 1475q12 0 103 -78t87 -94q-6 -29 -494 -713
t-509 -670q-53 38 -129 116q-76 79 -74 81l250 342q754 1016 766 1016z" />
    <glyph glyph-name="guilsinglleft" unicode="&#x2039;" horiz-adv-x="688" 
d="M76 452q0 10 172 248q172 236 179 241t65 -37t59 -46q0 -4 -98 -194t-97 -195l213 -428q-1 -5 -71 -65t-74 -58t-176 263t-172 271z" />
    <glyph glyph-name="guilsinglright" unicode="&#x203a;" horiz-adv-x="731" 
d="M655 442q1 -15 -199 -267q-200 -251 -202 -249l-172 111l258 436q-227 432 -231 442q-2 4 62 39t93 31q391 -537 391 -543z" />
    <glyph glyph-name="fraction" unicode="&#x2044;" 
d="M1077 1475q14 1 89 -57t70 -81q-6 -23 -494 -707t-509 -669q-38 24 -105 89t-65 67l252 342q748 1016 762 1016z" />
    <glyph glyph-name="zerosuperior" unicode="&#x2070;" horiz-adv-x="737" 
d="M360 1014q62 0 62 136t-60 136q-31 0 -47 -40t-16 -99q0 -133 61 -133zM371 793q-135 1 -212 79t-77 277t79 283t205 84t207 -85q82 -85 82 -282q1 -356 -284 -356z" />
    <glyph glyph-name="foursuperior" unicode="&#x2074;" horiz-adv-x="716" 
d="M281 1296h65l8 162q199 -6 201 -6l4 -164q76 0 76 -2v-172l-84 -4q-2 -96 -2 -98h16q13 -2 31 -4t23 -5t6 -172q-1 -2 -398 -2l2 48v90l2 47l107 2l6 94l-260 12l2 103v205l2 102l193 6v-242z" />
    <glyph glyph-name="fivesuperior" unicode="&#x2075;" horiz-adv-x="704" 
d="M541 1522q27 0 32 -2q-16 -184 -22 -187l-170 -8l-6 -39q10 -2 26 -5q15 -3 59 -19t77 -41t59 -74t27 -111q0 -98 -79 -160t-177 -61q-153 0 -244 70q-26 18 -41 39q94 135 98 135q4 -1 38 -15t73 -14t39 33q0 82 -160 82l-20 22l24 346l306 9h61z" />
    <glyph glyph-name="sixsuperior" unicode="&#x2076;" horiz-adv-x="686" 
d="M365 1049q12 0 23 10q11 11 11 35t-28 43q-29 18 -58 18q-19 -23 -5 -65t57 -41zM604 1044q0 -108 -72 -172t-184 -65q-112 0 -189 77t-77 212t80 253q80 117 137 167l27 20q0 2 49 -15t100 -42t57 -39l-28 -23q-89 -76 -111 -127q91 -18 151 -78t60 -168z" />
    <glyph glyph-name="sevensuperior" unicode="&#x2077;" horiz-adv-x="757" 
d="M410 803q-2 0 -107 28t-135 56l219 401h-108l4 -86l-168 -4q-2 0 -22 132t-3 167q20 18 510 6h4l72 -94q-264 -606 -266 -606z" />
    <glyph glyph-name="eightsuperior" unicode="&#x2078;" horiz-adv-x="714" 
d="M307 1055q0 -51 51 -51t52 47q0 55 -52 55t-51 -51zM352 1251q43 0 43 33q0 41 -43 41t-43 -37t43 -37zM633 1026q0 -106 -81 -162q-80 -56 -190 -55q-110 0 -195 54t-85 163t82 158q-64 45 -64 139t79 145q79 52 171 52t174 -54t82 -144q0 -91 -63 -138q90 -52 90 -158z
" />
    <glyph glyph-name="ninesuperior" unicode="&#x2079;" horiz-adv-x="686" 
d="M322 1298q-12 0 -24 -10t-11 -34q0 -24 28 -44q29 -18 58 -18q20 22 6 64t-57 42zM82 1304q0 108 73 172t184 64t188 -77t77 -214t-81 -255t-138 -163l-25 -20q0 -2 -49 15t-100 42t-57 39l26 23q89 71 113 127q-91 19 -151 79t-60 168z" />
    <glyph glyph-name="Euro" unicode="&#x20ac;" horiz-adv-x="1409" 
d="M563 657l260 5l-10 -150q-78 -10 -180 -20q86 -113 192 -113q59 0 133 40t119 101q81 -53 226 -192l43 -45l-17 -34q-10 -22 -54 -75t-97 -93q-52 -40 -148 -74t-205 -34q-199 0 -373 124t-251 349q-109 -10 -109 -8l-8 209h76q-4 53 -4 88q-59 -4 -103 -4q-6 0 -16 82
t-2 84q55 0 131 2q39 287 206 424t382 137q70 0 149 -29t92 -59q12 80 23 117q238 -23 307 -59q5 -33 -6 -390l-4 -133l-279 -22q-6 25 -33 70t-53 75t-72 52q-46 24 -98 24q-160 0 -207 -205q295 4 299 0t8 -59q4 -56 -2 -66q-5 -10 -321 -26v-7q0 -49 6 -86z" />
    <glyph glyph-name="afii61289" unicode="&#x2113;" horiz-adv-x="935" 
d="M356 885l160 432q-51 19 -93 -11q-67 -48 -87 -173q-14 -139 12 -220zM874 1288q0 -109 -93 -341t-186 -444q-93 -213 -93 -269t51 -56q44 0 117 51l22 17q27 -14 56 -46t43 -57l16 -22q-15 -22 -58 -55q-148 -111 -376 -111q-113 -1 -192 65t-79 205q0 90 36 206t71 187
l37 72q-57 171 -57 380q3 255 152 360q103 72 224 71q309 0 309 -213z" />
    <glyph glyph-name="trademark" unicode="&#x2122;" horiz-adv-x="1429" 
d="M1270 793q-228 0 -228 8q0 166 2 166q57 0 58 2l2 198q-5 -5 -47 -65l-17 -21q-80 -4 -82 -1l-28 42q-27 39 -31 45l2 -45v-94l2 -49q0 -4 31 -8l29 -2l6 -170q-269 0 -289 4q-4 8 -5 88t3 83t17 3h27q13 0 13 2q0 265 -2 273t-25 8q-22 0 -26 2q-4 4 -6 88t1 88t109 4
t113 -2l94 -133q96 127 103 132t121 3t114 -4v-82q2 -80 2 -87t-57 -7q0 -281 3 -286t31 -5t29 -4l9 -174h-78zM346 797q-192 0 -192 4v41q0 37 2 80v43l24 2q76 6 76 14l-6 272l-49 -2q-4 -70 -4 -73h-38q-30 0 -71 2h-41q-4 0 -4 119t8 133q6 6 287 16t283 6l4 -272
q-2 -2 -69 -2t-71 4l-10 71q-43 -2 -47 -2q-3 -7 1 -74q5 -67 7 -107t4 -68l2 -31h23q23 0 42 1t25 -1q2 -4 4 -83t2 -86t-192 -7z" />
    <glyph glyph-name="estimated" unicode="&#x212e;" horiz-adv-x="1685" 
d="M796 840q153 0 255 4l102 4q8 32 8 108t-4 138l-4 61q-16 47 -102 82q-87 35 -183 35t-189 -33t-130 -78q-3 -27 -5 -146q-3 -118 1 -167q98 -8 251 -8zM908 164q112 0 228 59t171 117l53 59q78 -47 139 -118q-20 -40 -81 -98q-62 -58 -126 -97t-172 -72
q-109 -32 -250 -32t-281 44t-250 130t-173 230t-64 329q0 336 226 546t551 207q367 -2 567 -238t110 -564q-49 -16 -302 -16t-480 7l-229 9q-6 -92 -6 -188t2 -146l4 -51q14 -11 41 -31t119 -53q91 -33 203 -33z" />
    <glyph glyph-name="onethird" unicode="&#x2153;" horiz-adv-x="1544" 
d="M1180 440q0 39 -41 39t-76 -28q-4 4 -11 15t-44 63t-36 67q2 39 105 75q57 19 137 19t158 -51t80 -137q2 -47 -16 -85t-32 -49t-26 -18q33 -16 59 -60t25 -87q0 -101 -88 -163t-190 -62t-160 43q-58 44 -82 88q100 133 104 133t28 -23q23 -23 62 -24q40 0 40 30
q0 51 -76 51q-5 11 0 89l2 28h22q56 0 56 47zM1180 1475q14 1 89 -57t70 -75q-6 -29 -494 -713t-509 -669q-38 24 -105 89t-65 67l252 342q748 1016 762 1016zM118 1320q-34 54 -34 58t106 91t107 85l174 -45l-6 -469q0 -2 40 -1t45 -4t5 -33v-47l-2 -76v-27l-2 -10
q-2 -2 -418 -2l-4 196l102 2l9 267q-74 -35 -81 -37t-41 52z" />
    <glyph glyph-name="twothirds" unicode="&#x2154;" horiz-adv-x="1605" 
d="M1241 440q0 39 -39 39t-78 -28q-4 4 -17 24t-44 63t-30 59q3 38 106 74q57 19 137 19t158 -51t79 -137q2 -47 -16 -85q-19 -38 -33 -49t-24 -18q32 -16 58 -60t26 -87q0 -101 -88 -163t-190 -62t-162 43q-59 44 -72 73l-8 15q100 133 104 133t27 -24t62 -23q40 0 40 30
q0 51 -76 51q-5 11 0 89l2 28h23q55 0 55 47zM1241 1475q14 1 89 -57t70 -81q-6 -23 -494 -707t-509 -669q-38 24 -105 89t-65 67l252 342q748 1016 762 1016zM598 980v-80q0 -68 -6 -71q-8 2 -242 -1t-238 0q-3 3 -13 82q-9 79 -7 98q26 28 92 92t99 102t33 56t-13 29
q-12 11 -33 11q-45 0 -90 -36q-9 -9 -32 32q-66 116 -66 129q0 14 28 37q28 24 88 46t146 22t167 -47t81 -145t-156 -296l156 2q6 -12 6 -62z" />
    <glyph glyph-name="oneeighth" unicode="&#x215b;" horiz-adv-x="1574" 
d="M1167 221q-1 -51 51 -51t52 47q0 55 -49 55q-54 0 -54 -51zM1169 455q0 -37 43 -37t43 33q0 41 -43 41t-43 -37zM942 192q0 108 82 158q-63 46 -63 140t78 145q79 51 171 51t174 -53t82 -145t-63 -138q90 -52 90 -158t-81 -161q-80 -55 -190 -55t-195 54t-85 162z
M1180 1475q14 1 89 -57t70 -75q-6 -29 -494 -713t-509 -669q-38 24 -105 89t-65 67l252 342q748 1016 762 1016zM118 1320q-34 54 -34 58t106 91t107 85l174 -45l-6 -469q0 -2 40 -1t45 -4t5 -33v-47l-2 -76v-27l-2 -10q-2 -2 -418 -2l-4 196l102 2l9 267q-74 -35 -81 -37
t-41 52z" />
    <glyph glyph-name="threeeighths" unicode="&#x215c;" horiz-adv-x="1574" 
d="M1167 221q-1 -51 51 -51t52 47q0 55 -49 55q-54 0 -54 -51zM1169 455q0 -37 43 -37t43 33q0 41 -43 41t-43 -37zM942 192q0 108 82 158q-63 46 -63 140t78 145q79 51 171 51t174 -53t82 -145t-63 -138q90 -52 90 -158t-81 -161q-80 -55 -190 -55t-195 54t-85 162z
M1180 1475q14 1 89 -57t70 -75q-6 -29 -494 -713t-509 -669q-38 24 -105 89t-65 67l252 342q748 1016 762 1016zM319 1274q0 39 -34 39t-82 -29q-4 4 -11 15t-44 63t-36 68q2 38 105 74q57 20 137 20t158 -51t80 -138q2 -47 -16 -85t-33 -49q-14 -11 -25 -17q32 -16 59 -61
q26 -44 25 -87q0 -100 -88 -162t-192 -63q-104 0 -161 46q-56 41 -71 73l-8 12q100 133 104 133q4 1 31 -23t63 -24t35 31q0 51 -75 51q-6 11 0 88l2 29h22q55 0 55 47z" />
    <glyph glyph-name="fiveeighths" unicode="&#x215d;" horiz-adv-x="1595" 
d="M1188 221q0 -51 51 -51t51 51t-51 51t-51 -51zM1190 455q0 -37 43 -37t43 33q0 41 -43 41t-43 -37zM1513 192q-1 -106 -81 -161t-190 -55t-194 54t-85 162q0 108 81 158q-63 46 -63 140t79 145t171 51t174 -53t82 -145t-64 -138q90 -52 90 -158zM1200 1475q14 1 89 -57
t70 -81t-493 -707t-510 -669q-38 24 -105 89t-65 67l252 342q748 1016 762 1016zM541 1522q27 0 32 -2q-16 -184 -22 -187l-170 -8l-6 -39q10 -2 26 -5q15 -3 59 -19t77 -41t59 -74t27 -111q0 -98 -79 -160t-177 -61q-153 0 -244 70q-26 18 -41 39q94 135 98 135
q4 -1 38 -15t73 -14t39 33q0 82 -160 82l-20 22l24 346l306 9h61z" />
    <glyph glyph-name="seveneighths" unicode="&#x215e;" horiz-adv-x="1595" 
d="M1188 221q0 -51 51 -51t51 51t-51 51t-51 -51zM1190 455q0 -37 43 -37t43 33q0 41 -43 41t-43 -37zM1513 192q-1 -106 -81 -161t-190 -55t-194 54t-85 162q0 108 81 158q-63 46 -63 140t79 145t171 51t174 -53t82 -145t-64 -138q90 -52 90 -158zM1200 1475q14 1 89 -57
t70 -81t-493 -707t-510 -669q-38 24 -105 89t-65 67l252 342q748 1016 762 1016zM410 803q-2 0 -107 28t-135 56l219 401h-108l4 -86l-168 -4q-2 0 -22 132t-3 167q20 18 510 6h4l72 -94q-264 -606 -266 -606z" />
    <glyph glyph-name="partialdiff" unicode="&#x2202;" horiz-adv-x="1087" 
d="M408 444q0 -48 28 -74t62 -26q74 0 116 55t38 120q-3 65 -23 112q-74 0 -148 -49q-73 -50 -73 -138zM59 440q0 305 300 451q77 37 161 55q-32 86 -127 170q-96 84 -140 115q-44 30 -44 33q12 33 94 85t161 91l75 35q75 -60 168 -160q91 -101 157 -199t120 -244t54 -294
t-47 -269t-124 -191q-157 -141 -351 -141q-195 0 -326 120t-131 343z" />
    <glyph glyph-name="product" unicode="&#x220f;" horiz-adv-x="2029" 
d="M111 1116q-6 0 -8 72q-3 208 22 237q12 14 834 37t929 17q35 -262 0 -351q-55 -6 -184 -10q-5 -29 9 -516q13 -487 18 -622l4 -136q0 -4 86 -8t91 -9t11 -139t0 -149q-8 -12 -387 -5t-381 12q-2 4 1 140t5 138t69 15t120 20q16 95 -7 934l-10 325q-238 -10 -655 0
q-5 -29 9 -516q13 -487 18 -622l4 -136q0 -5 83 0q83 4 93 0q6 -6 12 -142t0 -150t-397 -16q-391 -1 -392 3q-1 3 2 143t5 142l53 4q154 17 156 31l-17 1259q-10 -2 -196 -2z" />
    <glyph glyph-name="summation" unicode="&#x2211;" horiz-adv-x="1824" 
d="M143 1208v90q0 77 4 121v23l1416 2q-6 -575 -11 -576l-57 -4q-137 -10 -182 -10q-17 0 -88 249l-8 25q0 -4 -299 -2t-300 0l459 -569q-1 -2 -115 -171t-229 -339t-117 -172q4 -2 60 -2t296 5q238 5 238 9l23 64q21 65 41 131t20 74t138 4l137 -6l14 -625q-10 -10 -734 -3
t-730 17l-17 248q120 190 447 606l106 138q-500 616 -506 618q-6 1 -6 55z" />
    <glyph glyph-name="minus" unicode="&#x2212;" horiz-adv-x="1124" 
d="M88 637q-14 1 -20 105t-5 104l957 4q10 0 22 -94t5 -99q-55 -27 -443 -33t-516 13z" />
    <glyph glyph-name="uni2215" unicode="&#x2215;" 
d="M1077 1475q14 1 89 -57t70 -81q-6 -23 -494 -707t-509 -669q-38 24 -105 89t-65 67l252 342q748 1016 762 1016z" />
    <glyph glyph-name="uni2219" unicode="&#x2219;" horiz-adv-x="630" 
d="M336 565q-100 -1 -158 55t-60 153q-3 97 56 155t143 59q84 0 149 -61q64 -62 64 -148t-47 -150t-147 -63z" />
    <glyph glyph-name="radical" unicode="&#x221a;" horiz-adv-x="1259" 
d="M561 -23l-352 644q-150 4 -163 9t1 265q238 14 334 0l264 -465q453 1239 462 1248t110 -46q13 -7 -422 -1247l-148 -412z" />
    <glyph glyph-name="infinity" unicode="&#x221e;" horiz-adv-x="1452" 
d="M502 590q88 0 88 93t-98 93t-99 -98q0 -44 33 -66t76 -22zM897 678q0 -43 33 -66t76 -22q88 0 88 93t-98 93t-99 -98zM494 1014q121 0 241 -117q113 117 269 117t253 -85q99 -85 99 -231t-91 -243q-91 -96 -266 -97q-73 0 -149 34t-115 75q-39 -41 -104 -75t-135 -34
q-174 0 -276 82q-101 82 -101 250t103 246t272 78z" />
    <glyph glyph-name="integral" unicode="&#x222b;" horiz-adv-x="919" 
d="M34 -113q50 1 68 19t28 72t63 525q52 470 66 546q33 189 113 308q40 58 116 106t173 48q97 -1 187 -29t129 -57l39 -28l-158 -289q-74 47 -121 47t-71 -39t-31 -76l-6 -39q-84 -825 -119 -1064q-61 -426 -406 -426q-98 -1 -189 33t-132 67l-43 33q10 55 54 128t83 117
l37 45q70 -47 120 -47z" />
    <glyph glyph-name="approxequal" unicode="&#x2248;" horiz-adv-x="1431" 
d="M1004 444q0 -2 -14 -19q-72 -91 -196 -141q-124 -49 -240 10q-71 36 -124 75t-91 35q-68 -8 -146 -67q-21 -16 -27 -22t-18 10t-38 57q-26 42 -40 65t-16 29q-1 7 32 38q32 31 102 67t147 43t197 -67t160 -71q40 4 104 48t70 62q0 12 69 -69t69 -83zM1004 852
q0 -2 -23 -30t-74 -67q-99 -75 -190 -82q-92 -7 -163 29t-125 74q-54 39 -105 33t-131 -65q-21 -15 -27 -21t-12 2q-6 9 -16 23t-46 68q-37 54 -38 64q-1 11 32 42q32 30 102 66t147 43t197 -67t160 -70q40 3 104 47t70 63q0 12 69 -69t69 -83z" />
    <glyph glyph-name="notequal" unicode="&#x2260;" horiz-adv-x="1024" 
d="M903 342q-125 0 -438 6l-117 -198l-115 57q0 6 78 145q-182 8 -184 10q-9 10 -21 94t0 97q2 2 326 14l113 201q-453 12 -457 14q-14 2 -13 98t3 95q326 0 579 -8q93 164 101 167q20 7 102 -49l29 -16l-64 -108q117 -10 125 -21q16 -37 -1 -106q-17 -70 -20 -73t-218 5
l-113 -193q314 9 326 7q0 -10 -10 -124t-11 -114z" />
    <glyph glyph-name="lessequal" unicode="&#x2264;" horiz-adv-x="1024" 
d="M109 160q-15 0 -11 94t6 94l807 4q6 0 23 -78t4 -94q-104 -20 -829 -20zM96 758q-23 0 -22 192q0 10 393 163t402 145t41 -93q32 -84 28 -91t-258 -120l-252 -112q-4 -4 244 -110q248 -105 252 -105q4 -1 -30 -99q-36 -98 -40 -102t-189 79t-373 168t-196 85z" />
    <glyph glyph-name="greaterequal" unicode="&#x2265;" horiz-adv-x="1024" 
d="M737 172l-608 8q-14 0 -10 94t6 95q662 -14 807 -17q10 0 13 -85t-7 -87q-47 -8 -201 -8zM127 623q6 0 281 108q276 108 274 111l-293 123q-295 123 -299 130t28 91t41 92t412 -144t404 -163q0 -2 6 -91t-8 -102q-33 -28 -225 -114t-371 -157q-178 -71 -182 -65
q-8 13 -41 97t-27 84z" />
    <glyph glyph-name="lozenge" unicode="&#x25ca;" horiz-adv-x="1384" 
d="M702 430q0 -2 52 71t103 147q52 74 56 71q4 -2 -55 74q-60 75 -122 151t-66 76t-102 -146t-96 -149q4 -4 62 -78q58 -75 113 -145t55 -72zM637 -76q0 4 -149 197q-148 193 -298 383l-149 190q23 74 267 436q245 362 274 392q14 12 85 6t73 -12t88 -112q85 -107 299 -389
t214 -331q4 -12 -134 -200t-279 -371l-142 -183q-102 -11 -149 -6z" />
    <glyph glyph-name="commaaccent" unicode="&#xf6c3;" horiz-adv-x="661" 
d="M312 -109q88 0 150 -58t77 -140q96 -567 -283 -635q-22 44 -43 131l-10 31q125 10 166 112q31 78 -15 125q-20 23 -53 23q-104 0 -148 51q-43 51 -47 149t58 154q62 57 148 57z" />
    <glyph glyph-name="grave.cap" horiz-adv-x="911" 
d="M702 1552q-6 -2 -290 80t-308 90q-10 5 50 145q59 140 67 143t443 -152l145 -52q-74 -238 -107 -254z" />
    <glyph glyph-name="acute.cap" horiz-adv-x="925" 
d="M821 1745q-586 -195 -599 -188t-44 69t-53 119l-23 59l594 238q17 -4 74 -150q56 -145 51 -147z" />
    <glyph glyph-name="circumflex.cap" horiz-adv-x="1024" 
d="M274 1561q-30 5 -120 154q-20 34 -35 59l-15 22q-12 0 182 143t201 146q8 3 328 -211l107 -72q-141 -211 -174 -227l-238 160z" />
    <glyph glyph-name="caron.cap" horiz-adv-x="1024" 
d="M920 1853q5 0 -178 -140t-204 -148q-12 -5 -329 211l-107 71q141 211 174 228l238 -160l236 174q32 -5 120 -155q20 -34 35 -58z" />
    <glyph glyph-name="tilde.cap" horiz-adv-x="1126" 
d="M706 1870q39 0 60 74l6 24q203 -16 252 -49q0 -110 -58 -215q-77 -141 -229 -141q-96 1 -179 69q-83 69 -128 68q-37 0 -53 -74q-6 -29 -10 -33q-12 -10 -263 41q0 8 -1 22q-7 96 45 202q73 142 262 145q103 1 231 -99q43 -34 65 -34z" />
    <glyph glyph-name="dieresis.cap" horiz-adv-x="1134" 
d="M313 1567q-96 0 -150 53q-53 53 -57 146q-4 94 52 150t135 56q80 0 142 -59q63 -59 63 -142t-44 -144q-45 -60 -141 -60zM829 1972q79 0 141 -59t62 -142t-44 -143t-140 -61q-96 0 -151 53q-54 53 -57 146q-3 94 53 150t136 56z" />
    <glyph glyph-name="macron.cap" horiz-adv-x="925" 
d="M809 1612l-696 -17q-11 -1 -9 141t9 146q10 4 356 12t352 -2q4 -12 -2 -146t-10 -134z" />
    <glyph glyph-name="breve.cap" horiz-adv-x="868" 
d="M426 1536q-324 0 -324 360q100 20 211 0q0 -53 36 -91t90 -38t89 35t35 88q25 12 108 16t95 -5q0 -143 -75 -247q-39 -54 -107 -86t-158 -32z" />
    <glyph glyph-name="ring.cap" horiz-adv-x="757" 
d="M387 1702q80 0 80 90q-1 39 -21 69t-59 29q-86 0 -86 -98q-1 -42 27 -66t59 -24zM387 1530q-285 0 -285 280q0 137 79 202t202 65t198 -72t75 -193q0 -122 -68 -202t-201 -80z" />
    <glyph glyph-name="hungarumlaut.cap" horiz-adv-x="1081" 
d="M399 1561q-4 -1 -85 21t-88 29t61 339l22 108q42 15 180 -12q138 -26 138 -28t-112 -230q-112 -227 -116 -227zM840 1563q-197 33 -200 40t69 241t75 239q-4 2 159 -22t157 -31z" />
    <glyph glyph-name="dotaccent.cap" horiz-adv-x="600" 
d="M313 1567q-96 0 -150 53q-53 53 -57 146q-4 94 52 150t135 56q80 0 142 -59q63 -59 63 -142t-44 -144q-45 -60 -141 -60z" />
    <glyph glyph-name="commaaccent.alt" horiz-adv-x="661" 
d="M312 -109q88 0 150 -58t77 -140q96 -567 -283 -635q-22 44 -43 131l-10 31q125 10 166 112q31 78 -15 125q-20 23 -53 23q-104 0 -148 51q-43 51 -47 149t58 154q62 57 148 57z" />
    <glyph glyph-name="FCS" horiz-adv-x="1624" 
d="M816 -4q-659 -6 -677 -1t-25 50t5 52t1362 7q8 -4 4 -42t-8 -52q-2 -8 -661 -14zM1389 211q0 23 14 36t35 13t35 -14t14 -33q0 -53 -45 -53q-53 0 -53 51zM504 330l43 2l-25 63zM819 500q2 0 62 -86l59 -84v51q0 31 -2 49l-37 2q-13 60 -6 70h154q2 -12 2 -40t-2 -28
q-33 0 -33 -4l4 -135q2 -69 3 -95t-1 -42l-67 -4h-11q-3 6 -22 38t-29 50l-49 86v-90l2 -9q0 -2 16 -3t17 -5q0 -4 3 -21t2 -24q-1 -8 -1 -12h-11q-16 -4 -51 -4l-61 -2h-29l-2 14v33l-2 14l31 4q0 131 -2 187q-43 0 -43 6l-2 22q-2 20 -2 41l-2 21h112zM379 199v28l33 9
q20 113 37 180l20 90q8 4 57 0l43 -4l97 -269h24v-71l-135 -4q-2 2 -5 36t-1 34t14 1h10l-12 39h-65l-9 -30l33 -5l4 -59v-10l-139 -6q-6 25 -6 41zM1427 510q43 0 68 -6q0 -113 -26 -170q-9 -23 -14 -24t-21 -1t-23 6q-6 6 -21 83q-14 77 -14 108q8 4 51 4zM215 424
q1 -14 19 -24t30 -15q70 -34 86 -65q43 -79 -13 -127q-30 -27 -73 -27t-69 27v-21q0 -8 -2 -10l-37 4q-10 2 -37 2v123q51 12 76 8q12 -51 42 -51t29 20q0 23 -28 37t-33 17q-84 43 -84 116q0 37 27 63q28 25 68 25t63 -18l2 22h28q29 0 47 -8v-24q-6 -75 -6 -86
q-2 -4 -38 -5t-38 1q-6 39 -34 38q-25 0 -25 -22zM1210 248q27 0 27 22t-12 27l-28 14q-15 9 -31 17q-74 38 -74 110q0 37 28 63q29 25 71 25t60 -18l2 22h29q29 0 47 -8l-2 -24l-4 -86q-2 -4 -38 -5t-38 1q-2 39 -37 38q-25 0 -24 -22q0 -13 43 -35t63 -38q45 -37 45 -85
q1 -48 -27 -74t-75 -26t-68 27q0 -19 -4 -27v-4l-37 4q-9 2 -34 2l-2 123q53 12 75 8q12 -51 45 -51zM532 653q50 0 50 76t-50 76q-59 0 -59 -76t59 -76zM817 637q12 0 12 -2l5 -60q-8 2 -23 3h-115q-2 0 -2 61h31l-2 82q-2 84 0 86q0 2 -13 2h-14v4l-2 18v46h103l2 -5
q16 -24 22 -32l25 -37l26 37l29 37q2 2 51 2t52 -2q2 -10 2 -31v-35l-31 -2q-2 0 -2 -85t1 -87t17 -2h17l4 -62q-143 -2 -144 5v57q31 0 31 2v121q-3 -4 -17 -26t-16 -21l-39 -4q-4 8 -14 21t-16 30l4 -119q4 -2 16 -2zM1071 633h31l-6 178h-27q-4 5 -1 25t3 41h139l4 -60
l-40 -6l8 -174h18q16 0 18 -4t1 -58q-144 -1 -148 3v55zM1405 569q-67 0 -109 41q-41 41 -41 116t36 111q35 35 81 35t55 -18l7 25q52 0 67 -13q4 0 1 -34t-3 -72l-69 -8q-11 45 -46 45q-41 0 -41 -72q-1 -37 15 -53q38 -39 88 12q4 -4 16 -17q12 -14 19 -18l22 -18
q-31 -62 -98 -62zM242 799q-41 0 -41 -71t51 -71q41 0 51 29q31 -29 37 -35l20 -18q-12 -20 -22 -31q-31 -31 -86 -31t-97 40t-42 115t37 112q37 36 78 36t61 -18l2 25q52 0 69 -15v-15l-4 -89l-67 -8q-11 45 -47 45zM532 569q-147 0 -147 157t147 157q60 0 100 -41t40 -111
t-35 -116t-105 -46zM274 1057q0 -51 2 -51l13 -2h22l13 -3l4 -36q4 -37 6 -37h-203v69l45 4q-2 39 -2 122t-1 84t-18 1t-26 2v35q0 25 6 43q94 0 133 -2l92 -2h41l5 -53q2 -14 2 -53l-35 -7q-33 -8 -37 -4v4q-6 6 -6 31l-56 2l2 -65l52 -6v-72l-2 -4h-52zM1309 1292
q2 0 2 -36t-1 -36t-8 -1q-7 0 -14 -7v-53l37 33l25 25q8 8 12 10q0 6 -10 4t-13 0q0 17 -4 47v14l8 2h52l59 -2h29v-65q0 -4 -13 -6h-12q-72 -63 -72 -70q-2 -2 37 -73t41 -70h6q6 -2 14 -2t11 -2l4 -66q-96 -5 -151 -2l-7 68l31 -3q0 1 -24 47t-25 48q-2 2 -17 -12t-18 -19
q0 -53 2 -57q27 -6 33 -7l-2 -30q-2 -31 0 -35h-23l-49 -2h-73q-6 50 -2 72l6 2h30l-2 211l-41 4v49l2 16l118 4h22zM625 928q-66 0 -103 38t-37 103l-2 143l-34 7l-5 67l80 4q40 2 56 3t26 -1l2 -73l-6 -2h-10q-8 0 -12 -3q2 -27 2 -69v-76q0 -39 43 -39t43 37v150h-31v73
q7 4 67 4t84 -2q2 -14 3 -35v-34l-29 -9v-151q0 -63 -36 -99t-101 -36zM928 1114q0 -43 19 -62q46 -46 106 13l67 -61q-8 -20 -42 -48t-93 -28t-109 50t-50 138t42 130t94 42t70 -18l6 28h15q56 -7 65 -16q4 0 1 -40t-3 -85l-82 -10q-10 52 -57 51q-49 0 -49 -84zM1495 1352
q-1333 0 -1358 10q-12 10 -8 50t13 49t678 6t669 -11l4 -55q2 -14 2 -49z" />
    <glyph glyph-name="HVD" horiz-adv-x="1409" 
d="M442 129q-41 1 -41 63t37 62t37 -62t-33 -63zM133 319q-4 0 -4 -6v-252l14 -6h47q12 0 15 17v69q0 8 10 9h51q2 0 2 4v51q0 10 -14 10h-49v33h88q2 0 2 4v63l-16 4h-146zM436 55q47 0 78 32t31 95q0 64 -27 104t-80 40t-80 -40t-27 -94t25 -94q33 -43 80 -43zM850 315
v-55q0 -6 6 -6h51v-193q6 -6 11 -6h55q6 0 6 17v182h51q6 0 6 10v55q0 6 -16 7h-166q-4 -4 -4 -11zM606 55h58q6 0 10 11v120l69 -125q6 -6 11 -6h39q10 0 10 37q0 38 -3 94t1 136q0 8 -10 8h-52q-13 0 -14 -14q-2 -14 -1 -40q1 -25 1 -45l-57 95q-4 4 -11 4h-51
q-10 0 -10 -21v-248q6 -6 10 -6zM1077 55h86q43 1 61 21t19 47q0 27 -41 72t-41 54t17 9h55q6 0 6 36t-6 36h-82q-37 0 -55 -22t-18 -50t36 -68q37 -41 37 -50t-16 -13h-58q-4 0 -4 -8v-49q0 -15 4 -15zM559 412q0 -21 16 -21h265q6 9 6 27v84q-10 14 -19 14q-29 -2 -90 -2
h-84q-59 0 -88 2l-6 -16v-88zM1022 666v131q119 -8 119 -152q0 -67 -37 -95t-78 -28q-4 98 -4 144zM651 563h66q24 0 27 2t7 20t47 158q44 140 52 156l-6 12q-13 6 -21 4h-65q-24 0 -33 -6q-4 -29 -8 -41l-23 -88q-24 70 -37 129q-6 6 -24 6h-74q-4 4 -8 0l-8 -4
q-6 -6 -8 -12q8 -18 102 -315q12 -21 14 -21zM131 387q0 -10 21 -10h90q18 0 18 24v183q20 2 57 2h52q4 -119 4 -144v-55q15 -10 26 -10h78q6 -4 12 0q12 4 19 24q-10 205 -10 514q-6 11 -17 11h-98q-20 0 -21 -17q6 -63 7 -190q-14 -2 -54 -2h-55q-4 115 -4 139v53
q0 16 -16 17h-99q-14 0 -14 -25q4 -258 4 -352v-162zM918 377h83q267 1 269 281q0 128 -70 200t-199 68h-94q-20 0 -20 -31l6 -348l4 -160q0 -10 21 -10zM1305 35q0 -11 -5 -31h-1198q-20 1 -20 21v1581q0 8 6 20q199 -2 547 -2h405l250 2q12 -8 15 -35v-1556z" />
    <glyph glyph-name="I.sc" horiz-adv-x="0" 
 />
    <glyph glyph-name="cedilla.cap" horiz-adv-x="608" 
d="M229 25q152 2 242 -5l-8 -124q15 -5 51 -27q113 -70 114 -185t-141 -183q-109 -49 -200 -64q-3 -2 -19 44t-28 92t-10 47t20 4q114 21 117 75q0 33 -36 53t-71 27l-35 4z" />
    <glyph glyph-name="commaaccent.cap" horiz-adv-x="661" 
d="M312 -109q88 0 150 -58t77 -140q96 -567 -283 -635q-22 44 -43 131l-10 31q125 10 166 112q31 78 -15 125q-20 23 -53 23q-104 0 -148 51q-43 51 -47 149t58 154q62 57 148 57z" />
    <glyph glyph-name="ogonek.cap" horiz-adv-x="604" 
d="M102 -274q0 125 60 193q60 67 102 85l19 10q37 10 113 12t91 -12q-42 -49 -76 -122t-34 -121q0 -47 31 -75t61 -36l31 -8q6 -2 -20 -85t-29 -83q-59 -9 -189 34q-66 22 -113 80t-47 128z" />
    </font>
</defs>
</svg>
